Pretty skinny girl in casting video

Angela & Lindsey A Threesome DateTeens fucked doggy style

Posted in Amateur, HD Porn, Sex Movies, Teen | 11287 Views |


Rate this girl !!!




\r\n\r\n\r\nPretty skinny girl in casting video\r\n\r\n Link(1.23 Gb||37:31||1920*1080||MP4)



DOWNLOAD

Keep2share.cc - Uploaded.net - Openload.co - Rapidu.net


http://keep2share.cc/file/52e624383205f
http://ryushare.com/7t2v09cjtyit/TRCGNShk.rar
http://ul.to/iz6tbpli


Premium here:
uploaded.net
keep2share.cc
rapidu.net.cc

Teens related to Pretty skinny girl in casting video


Wow porn hd downloads 224435 ryushare uploaded keep2share

Wow porn hd downloads 224435

Hardcore sex videos in the high definition quality 4462 ryushare uploaded keep2share

Hardcore sex videos in the high definition quality 4462

hd xxx sex muvi com ryushare uploaded keep2share

hd xxx sex muvi com

download free 720 porn videos ryushare uploaded keep2share

download free 720 porn videos

Free Young Porn Videos XXX Teen Porn 3871 ryushare uploaded keep2share

Free Young Porn Videos XXX Teen Porn 3871

Girls do porn in HD 224007 ryushare uploaded keep2share

Girls do porn in HD 224007

download hd fucking video full 226558 ryushare uploaded keep2share

download hd fucking video full 226558

Young XXX Tube Videos 2398 ryushare uploaded keep2share

Young XXX Tube Videos 2398

sex videos 18 226639 ryushare uploaded keep2share

sex videos 18 226639

baby hd mp4 deflortioan sex 226670 ryushare uploaded keep2share

baby hd mp4 deflortioan sex 226670

8teen xxx pcHD com ryushare uploaded keep2share

8teen xxx pcHD com

Wow girls downloads hd 225203 ryushare uploaded keep2share

Wow girls downloads hd 225203

sex pussy hd photos ryushare uploaded keep2share

sex pussy hd photos

Cecilia, Vanda – Everlasting Love ryushare uploaded keep2share

Cecilia, Vanda – Everlasting Love

Nude Teens fucking hard Redhair amateur 4896 ryushare uploaded keep2share

Nude Teens fucking hard Redhair amateur 4896

Hd young videos 5293 ryushare uploaded keep2share

Hd young videos 5293

Young xxx 225572 ryushare uploaded keep2share

Young xxx 225572

pikworld hd sex com 226466 ryushare uploaded keep2share

pikworld hd sex com 226466

Wow porn hd downloads 225829 ryushare uploaded keep2share

Wow porn hd downloads 225829

TrickyMasseur.com Anjelica ryushare uploaded keep2share

TrickyMasseur.com Anjelica

Wow girls hd porn teens 225278 ryushare uploaded keep2share

Wow girls hd porn teens 225278

In Hd quality xxx video for download 226652 ryushare uploaded keep2share

In Hd quality xxx video for download 226652

HD porn teen downloads 2662 ryushare uploaded keep2share

HD porn teen downloads 2662

Beata & Denis Fandado [SexArt] ryushare uploaded keep2share

Beata & Denis Fandado [SexArt]

HD Porn Teen Sex Videos 4070 ryushare uploaded keep2share

HD Porn Teen Sex Videos 4070

bbb hd sex 226562 ryushare uploaded keep2share

bbb hd sex 226562

Xxx 888 226518 ryushare uploaded keep2share

Xxx 888 226518

HD Porn Videos 4077 ryushare uploaded keep2share

HD Porn Videos 4077

xxxvsex hd fist time video ryushare uploaded keep2share

xxxvsex hd fist time video

HD Porn Teen Sex Videos 225821 ryushare uploaded keep2share

HD Porn Teen Sex Videos 225821

Adult Hardcore XXX Sex Videos 5564 ryushare uploaded keep2share

Adult Hardcore XXX Sex Videos 5564

Good Teen Tube Sexy Young Naked Girls Movies 2395 ryushare uploaded keep2share

Good Teen Tube Sexy Young Naked Girls Movies 2395

College Teen Sex 225721 ryushare uploaded keep2share

College Teen Sex 225721

kyra hot and kiara lord klixen three teasing tongues 226098 ryushare uploaded keep2share

kyra hot and kiara lord klixen three teasing tongues 226098

Teen porn movies 3184 ryushare uploaded keep2share

Teen porn movies 3184

Report broken links / Post a comment

You must be logged in to post a comment.



General\r\nComplete name : D:Pretty skinny girl in casting videoTRCGNShkTRCGNShk.mp4\r\nFormat : MPEG-4\r\nFormat profile : Base Media\r\nCodec ID : isom\r\nFile size : 1.23 GiB\r\nDuration : 37mn 31s\r\nOverall bit rate : 4 674 Kbps\r\nWriting application : Lavf54.22.101\r\n\r\nVideo\r\nID : 1\r\nFormat : AVC\r\nFormat/Info : Advanced Video Codec\r\nFormat profile : [email protected]\r\nFormat settings, CABAC : Yes\r\nFormat settings, ReFrames : 4 frames\r\nCodec ID : avc1\r\nCodec ID/Info : Advanced Video Coding\r\nDuration : 37mn 31s\r\nBit rate : 4 539 Kbps\r\nWidth : 1 920 pixels\r\nHeight : 1 080 pixels\r\nDisplay aspect ratio : 16:9\r\nFrame rate mode : Constant\r\nFrame rate : 25.000 fps\r\nColor space : YUV\r\nChroma subsampling : 4:2:0\r\nBit depth : 8 bits\r\nScan type : Progressive\r\nBits/(Pixel*Frame) : 0.088\r\nStream size : 1.19 GiB (97%)\r\nWriting library : x264 core 125\r\nEncoding settings : cabac=1 / ref=3 / deblock=1:0:0 / analyse=0x3:0x113 / me=hex / subme=7 / psy=1 / psy_rd=1.00:0.00 / mixed_ref=1 / me_range=16 / chroma_me=1 / trellis=0 / 8x8dct=1 / cqm=0 / deadzone=21,11 / fast_pskip=1 / chroma_qp_offset=-2 / threads=16 / lookahead_threads=2 / sliced_threads=0 / nr=0 / decimate=1 / interlaced=0 / bluray_compat=0 / constrained_intra=0 / bframes=8 / b_pyramid=2 / b_adapt=1 / b_bias=0 / direct=1 / weightb=1 / open_gop=0 / weightp=2 / keyint=50 / keyint_min=5 / scenecut=40 / intra_refresh=0 / rc_lookahead=40 / rc=crf / mbtree=1 / crf=20.0 / qcomp=0.60 / qpmin=0 / qpmax=69 / qpstep=4 / ip_ratio=1.40 / aq=1:1.00\r\nLanguage : Russian\r\n\r\nAudio\r\nID : 2\r\nFormat : AAC\r\nFormat/Info : Advanced Audio Codec\r\nFormat profile : LC\r\nCodec ID : 40\r\nDuration : 37mn 31s\r\nBit rate mode : Constant\r\nBit rate : 128 Kbps\r\nChannel(s) : 2 channels\r\nChannel positions : Front: L R\r\nSampling rate : 44.1 KHz\r\nCompression mode : Lossy\r\nStream size : 34.4 MiB (3%)\r\nLanguage : Russian\r\n\r\n