Porn HD Sex HD Teen Sex 3694

Hd young videos 3698First time Sexual Films 18 sex xxx 3689

Posted in Amateur, HD Porn, Sex Movies, Teen | 41870 Views |


Rate this girl !!!




\r\n



DOWNLOAD

Keep2share.cc - Uploaded.net - Openload.co - Rapidu.net


http://ryushare.com/v71zr33czvb3/BSCMSHrt.mp4
http://ul.to/omyprfjt/BSCMSHrt.mp4
http://k2s.cc/file/33b284ff932ef/BSCMSHrt.mp4
http://fileom.com/zq12rtmu9cnl/BSCMSHrt.mp4.html


Premium here:
uploaded.net
keep2share.cc
rapidu.net.cc


Teens related to Porn HD Sex HD Teen Sex 3694


Teen Sex Movies Young Porn Tube Vids 225369 ryushare uploaded keep2share

Teen Sex Movies Young Porn Tube Vids 225369

Hot Teen Sex HD videos 2905 ryushare uploaded keep2share

Hot Teen Sex HD videos 2905

sxy ccc xx 226377 ryushare uploaded keep2share

sxy ccc xx 226377

Angela & Lindsey A Threesome Date ryushare uploaded keep2share

Angela & Lindsey A Threesome Date

Teen Sex Movies 3822 ryushare uploaded keep2share

Teen Sex Movies 3822

Porno movies young teens lesbian 224059 ryushare uploaded keep2share

Porno movies young teens lesbian 224059

Download young porn sex 5145 ryushare uploaded keep2share

Download young porn sex 5145

Teens in Porno young porn videos and free teen sex 3051 ryushare uploaded keep2share

Teens in Porno young porn videos and free teen sex 3051

Free Teen Porn Videos at Teen Sex Tube XXX 224787 ryushare uploaded keep2share

Free Teen Porn Videos at Teen Sex Tube XXX 224787

Free Porn Videos Xxx Movies Pussy Porn 5304 ryushare uploaded keep2share

Free Porn Videos Xxx Movies Pussy Porn 5304

Free High Quality Sex Movies 225016 ryushare uploaded keep2share

Free High Quality Sex Movies 225016

Wow girls hd porn teens 224337 ryushare uploaded keep2share

Wow girls hd porn teens 224337

Nude Teens fucking hard 4199 ryushare uploaded keep2share

Nude Teens fucking hard 4199

www full hd video fucking com ryushare uploaded keep2share

www full hd video fucking com

sex bf movies hd com 226379 ryushare uploaded keep2share

sex bf movies hd com 226379

HD sex movies downloads 2857 ryushare uploaded keep2share

HD sex movies downloads 2857

Teen Sex Movies 1769 ryushare uploaded keep2share

Teen Sex Movies 1769

HD Porn Teen Sex Videos 225926 ryushare uploaded keep2share

HD Porn Teen Sex Videos 225926

The best Teen sex 225923 ryushare uploaded keep2share

The best Teen sex 225923

Teens in Porno young porn videos and free teen sex 225947 ryushare uploaded keep2share

Teens in Porno young porn videos and free teen sex 225947

hd sex videos download new 226623 ryushare uploaded keep2share

hd sex videos download new 226623

WowGirls.com Linda Sweet, Lucy Li – True Fulfillment ryushare uploaded keep2share

WowGirls.com Linda Sweet, Lucy Li – True Fulfillment

HD Porn Teen Sex Videos 5198 ryushare uploaded keep2share

HD Porn Teen Sex Videos 5198

K Three Teasing Tongues 3 ryushare uploaded keep2share

K Three Teasing Tongues 3

Teens sex mania 225690 ryushare uploaded keep2share

Teens sex mania 225690

xxx video9 HDdownload com ryushare uploaded keep2share

xxx video9 HDdownload com

bb xxx hd vdeo free ryushare uploaded keep2share

bb xxx hd vdeo free

Teen Sex Porn Videos Free Nude Teens 224616 ryushare uploaded keep2share

Teen Sex Porn Videos Free Nude Teens 224616

Free High Quality Sex Movies 3418 ryushare uploaded keep2share

Free High Quality Sex Movies 3418

Taissia A – Bed of Roses ryushare uploaded keep2share

Taissia A – Bed of Roses

Tube Young Sex 225873 ryushare uploaded keep2share

Tube Young Sex 225873

xxx 18porn sex ryushare uploaded keep2share

xxx 18porn sex

Linda S – I’Am Your Woman ryushare uploaded keep2share

Linda S – I’Am Your Woman

Alexis Brill – WUNF 101 ryushare uploaded keep2share

Alexis Brill – WUNF 101

Hot Teen Sex 1274 ryushare uploaded keep2share

Hot Teen Sex 1274

Report broken links / Post a comment

You must be logged in to post a comment.



General\r\nComplete name : D:hd pornstars teens ryushare.com uploaded.net keep2share.cc fileom.com download porn movies clips BSCMSHrt.mp4\r\nFormat : MPEG-4\r\nFormat profile : Base Media\r\nCodec ID : isom\r\nFile size : 934 MiB\r\nDuration : 30mn 20s\r\nOverall bit rate : 4 302 Kbps\r\nWriting application : Lavf55.7.100\r\n\r\nVideo\r\nID : 1\r\nFormat : AVC\r\nFormat/Info : Advanced Video Codec\r\nFormat profile : [email protected]\r\nFormat settings, CABAC : Yes\r\nFormat settings, ReFrames : 5 frames\r\nCodec ID : avc1\r\nCodec ID/Info : Advanced Video Coding\r\nDuration : 30mn 20s\r\nBit rate : 4 000 Kbps\r\nWidth : 1 280 pixels\r\nHeight : 720 pixels\r\nDisplay aspect ratio : 16:9\r\nFrame rate mode : Constant\r\nFrame rate : 29.970 fps\r\nColor space : YUV\r\nChroma subsampling : 4:2:0\r\nBit depth : 8 bits\r\nScan type : Progressive\r\nBits/(Pixel*Frame) : 0.145\r\nStream size : 865 MiB (93%)\r\nWriting library : x264 core 133 r2334 a3ac64b\r\nEncoding settings : cabac=1 / ref=5 / deblock=1:0:0 / analyse=0x3:0x113 / me=umh / subme=8 / psy=1 / psy_rd=1.00:0.00 / mixed_ref=1 / me_range=16 / chroma_me=1 / trellis=1 / 8x8dct=1 / cqm=0 / deadzone=21,11 / fast_pskip=1 / chroma_qp_offset=-2 / threads=6 / lookahead_threads=1 / sliced_threads=0 / nr=0 / decimate=1 / interlaced=0 / bluray_compat=0 / constrained_intra=0 / bframes=3 / b_pyramid=2 / b_adapt=2 / b_bias=0 / direct=3 / weightb=1 / open_gop=0 / weightp=2 / keyint=60 / keyint_min=6 / scenecut=40 / intra_refresh=0 / rc_lookahead=50 / rc=abr / mbtree=1 / bitrate=4000 / ratetol=1.0 / qcomp=0.60 / qpmin=0 / qpmax=69 / qpstep=4 / ip_ratio=1.40 / aq=1:1.00\r\nTagged date : UTC 2014-05-21 05:19:02\r\n\r\nAudio\r\nID : 2\r\nFormat : AAC\r\nFormat/Info : Advanced Audio Codec\r\nFormat profile : LC\r\nCodec ID : 40\r\nDuration : 30mn 20s\r\nDuration_LastFrame : -9ms\r\nBit rate mode : Constant\r\nBit rate : 128 Kbps\r\nChannel(s) : 2 channels\r\nChannel positions : Front: L R\r\nSampling rate : 48.0 KHz\r\nCompression mode : Lossy\r\nStream size : 27.8 MiB (3%)\r\nTagged date : UTC 2014-05-21 05:19:02\r\n\r\nOther #1\r\nID : 65536\r\nType : Hint\r\nFormat : RTP\r\nCodec ID : rtp \r\nDuration : 30mn 20s\r\nEncoded date : UTC 2014-05-21 05:17:33\r\nTagged date : UTC 2014-05-21 05:19:02\r\n\r\nOther #2\r\nID : 65537\r\nType : Hint\r\nFormat : RTP\r\nCodec ID : rtp \r\nDuration : 30mn 20s\r\nEncoded date : UTC 2014-05-21 05:19:00\r\nTagged date : UTC 2014-05-21 05:19:02\r\nBit rate mode : VBR\r\n\r\nhd pornstars teens ryushare.com uploaded.net keep2share.cc fileom.com download porn movies clips