Porn HD Sex HD Teen Sex 1482

HD Porn Videos 1486HD Porn Teen Sex Videos 1479

Posted in Amateur, HD Porn, Sex Movies, Teen | 6432 Views |


Rate this girl !!!




\r\n\r\n\r\nhttp://img102.imagetwist.com/i/05229/apweiko69pon.jpeg\r\n\r\n Link(498 Mb||21:53||720*540||WMV)



DOWNLOAD

Keep2share.cc - Uploaded.net - Openload.co - Rapidu.net


http://keep2share.cc/file/96b1be2ddb5cd
http://ryushare.com/u86kmk8yvyxe/TNSMCl2.rar
http://ul.to/y42g7rkm


Premium here:
uploaded.net
keep2share.cc
rapidu.net.cc


Teens related to Porn HD Sex HD Teen Sex 1482


Teen Sex Videos Tube Movies 224560 ryushare uploaded keep2share

Teen Sex Videos Tube Movies 224560

8 Teen XXX – Teen Sex 224622 ryushare uploaded keep2share

8 Teen XXX – Teen Sex 224622

Hot Teen Sex HD videos 2905 ryushare uploaded keep2share

Hot Teen Sex HD videos 2905

Beautifull Blonde Models – Ponstars  Orgy Threesome ryushare uploaded keep2share

Beautifull Blonde Models – Ponstars Orgy Threesome

J. Joanna (Shoot It For Me / 15.12.13) ryushare uploaded keep2share

J. Joanna (Shoot It For Me / 15.12.13)

Teen 18 Porn XXX Clips Naked 3189 ryushare uploaded keep2share

Teen 18 Porn XXX Clips Naked 3189

18YearsOld.com Alli Ray – Blindfold My Baby ryushare uploaded keep2share

18YearsOld.com Alli Ray – Blindfold My Baby

Hot download sex girls movies 225877 ryushare uploaded keep2share

Hot download sex girls movies 225877

Hardcore sex videos in the high definition quality 1934 ryushare uploaded keep2share

Hardcore sex videos in the high definition quality 1934

HD Sex World Videos High Definition Free Porn 5561 ryushare uploaded keep2share

HD Sex World Videos High Definition Free Porn 5561

beata russian tean porn 226488 ryushare uploaded keep2share

beata russian tean porn 226488

Zarina AKA: Dalida ryushare uploaded keep2share

Zarina AKA: Dalida

Small girls and boys porn 3443 ryushare uploaded keep2share

Small girls and boys porn 3443

xxx movies hd for mobile com ryushare uploaded keep2share

xxx movies hd for mobile com

HD Porn Videos 225579 ryushare uploaded keep2share

HD Porn Videos 225579

nude hot 226040 ryushare uploaded keep2share

nude hot 226040

Girls do porn in HD 225551 ryushare uploaded keep2share

Girls do porn in HD 225551

Wow girls porn teens 2578 ryushare uploaded keep2share

Wow girls porn teens 2578

Alexis Brill – WUNF 101 ryushare uploaded keep2share

Alexis Brill – WUNF 101

lwww xxxx sex ryushare uploaded keep2share

lwww xxxx sex

Watch Teen Sex Videos HD 224956 ryushare uploaded keep2share

Watch Teen Sex Videos HD 224956

Wowporn Barbara Sweet & Beata HD ryushare uploaded keep2share

Wowporn Barbara Sweet & Beata HD

Nubiles – sexual intercourse ryushare uploaded keep2share

Nubiles – sexual intercourse

Wow porn tube movies 225566 ryushare uploaded keep2share

Wow porn tube movies 225566

Eva Rides on Top on a Nice Thick Cock ryushare uploaded keep2share

Eva Rides on Top on a Nice Thick Cock

Hd young videos 225324 ryushare uploaded keep2share

Hd young videos 225324

HD porn uploaded 4280 ryushare uploaded keep2share

HD porn uploaded 4280

Wow Girls Porn Clips download 224301 ryushare uploaded keep2share

Wow Girls Porn Clips download 224301

HQ Sex Movies Download 5339 ryushare uploaded keep2share

HQ Sex Movies Download 5339

ClubSeventeen.com SiteRip – Part 1 ryushare uploaded keep2share

ClubSeventeen.com SiteRip – Part 1

Taissia Shanti – Hot and Steamy ryushare uploaded keep2share

Taissia Shanti – Hot and Steamy

HQ Sex Movies Download 1864 ryushare uploaded keep2share

HQ Sex Movies Download 1864

sexxxxxxx mp 3 xxxhd 226194 ryushare uploaded keep2share

sexxxxxxx mp 3 xxxhd 226194

Hot Teen Sex HD videos 1578 ryushare uploaded keep2share

Hot Teen Sex HD videos 1578

Nude Teens fucking hard 223931 ryushare uploaded keep2share

Nude Teens fucking hard 223931

Report broken links / Post a comment

You must be logged in to post a comment.



General\r\nComplete name : D:HD Teens Download Porn Sex clips movies Tube.xxxTNSMCl2TNSMCl2.wmv\r\nFormat : Windows Media\r\nFile size : 498 MiB\r\nDuration : 21mn 53s\r\nOverall bit rate mode : Constant\r\nOverall bit rate : 3 181 Kbps\r\nMaximum Overall bit rate : 3 195 Kbps\r\nPerformer : Royal-cash.com\r\nEncoded date : UTC 2009-08-01 09:06:06.218\r\nCopyright : Royal-cash.com\r\n\r\nVideo\r\nID : 2\r\nFormat : VC-1\r\nFormat profile : [email protected]\r\nCodec ID : WMV3\r\nCodec ID/Info : Windows Media Video 9\r\nCodec ID/Hint : WMV3\r\nDescription of the codec : Windows Media Video 9 - Professional\r\nDuration : 21mn 53s\r\nBit rate mode : Constant\r\nBit rate : 3 072 Kbps\r\nWidth : 720 pixels\r\nHeight : 540 pixels\r\nDisplay aspect ratio : 4:3\r\nFrame rate : 29.970 fps\r\nColor space : YUV\r\nChroma subsampling : 4:2:0\r\nBit depth : 8 bits\r\nScan type : Progressive\r\nCompression mode : Lossy\r\nBits/(Pixel*Frame) : 0.264\r\nStream size : 481 MiB (97%)\r\nLanguage : English\r\n\r\nAudio\r\nID : 1\r\nFormat : WMA\r\nFormat version : Version 2\r\nCodec ID : 161\r\nCodec ID/Info : Windows Media Audio\r\nDescription of the codec : Windows Media Audio 9.1 - 96 kbps, 44 kHz, stereo 1-pass CBR\r\nDuration : 21mn 53s\r\nBit rate mode : Constant\r\nBit rate : 96.0 Kbps\r\nChannel(s) : 2 channels\r\nSampling rate : 44.1 KHz\r\nBit depth : 16 bits\r\nStream size : 15.0 MiB (3%)\r\nLanguage : English\r\n\r\n\r\n