Porn HD Sex HD Teen Sex 1200

Watch Teen Sex Videos HD 1207Teen porn movies 1195

Posted in HD Porn, Pornstar, Sex Movies, Teen, Threesome | 9632 Views |


Rate this girl !!!




\r\n\r\n\r\n\r\n\r\n\r\nhttp://img101.imagetwist.com/i/05164/drwb3ob1go3k.jpeg\r\n\r\n Link(920 Mb||20:40||1920*1080||WMV)



DOWNLOAD

Keep2share.cc - Uploaded.net - Openload.co - Rapidu.net


http://ryushare.com/786zsuae7c26/TNSDNGln.rar
http://keep2share.cc/file/52efa46dc7bc7
http://ul.to/97rs5mzg


Premium here:
uploaded.net
keep2share.cc
rapidu.net.cc


Teens related to Porn HD Sex HD Teen Sex 1200


TeenBFF.com Maci Winslett & Alex Tanner – Posing for Cum ryushare uploaded keep2share

TeenBFF.com Maci Winslett & Alex Tanner – Posing for Cum

Hot Teen Sex 3611 ryushare uploaded keep2share

Hot Teen Sex 3611

Teens in Porno young porn videos and free teen sex 5495 ryushare uploaded keep2share

Teens in Porno young porn videos and free teen sex 5495

[RylskyArt.com] Gia – Shadows ryushare uploaded keep2share

[RylskyArt.com] Gia – Shadows

Watch Teen Sex Videos HD 2098 ryushare uploaded keep2share

Watch Teen Sex Videos HD 2098

Teen porn movies 2556 ryushare uploaded keep2share

Teen porn movies 2556

Hot Teen Sex HD videos 224322 ryushare uploaded keep2share

Hot Teen Sex HD videos 224322

xxx video 6teen Hd ryushare uploaded keep2share

xxx video 6teen Hd

Small girls and boys porn 4002 ryushare uploaded keep2share

Small girls and boys porn 4002

H D SEXI VIDEO com 226526 ryushare uploaded keep2share

H D SEXI VIDEO com 226526

Nude Teens fucking hard Redhair amateur 4896 ryushare uploaded keep2share

Nude Teens fucking hard Redhair amateur 4896

Young Virgin Pussy Teen Fuck Tube 223802 ryushare uploaded keep2share

Young Virgin Pussy Teen Fuck Tube 223802

pornosexxx hd 226414 ryushare uploaded keep2share

pornosexxx hd 226414

Check Out What Ive Learned ryushare uploaded keep2share

Check Out What Ive Learned

ful hd porn girls 226184 ryushare uploaded keep2share

ful hd porn girls 226184

Fucking skinny pornstar girl ryushare uploaded keep2share

Fucking skinny pornstar girl

Hd young videos 3854 ryushare uploaded keep2share

Hd young videos 3854

sex hd romance 226550 ryushare uploaded keep2share

sex hd romance 226550

Teen xxx sex hd 224866 ryushare uploaded keep2share

Teen xxx sex hd 224866

hq hd pron pussy free downlode 226077 ryushare uploaded keep2share

hq hd pron pussy free downlode 226077

Tube Young Sex 224693 ryushare uploaded keep2share

Tube Young Sex 224693

Eva, Alberta, Niona, Nora – Sex party ryushare uploaded keep2share

Eva, Alberta, Niona, Nora – Sex party

gibitube com porn 226071 ryushare uploaded keep2share

gibitube com porn 226071

grace c Creampie-Angels ryushare uploaded keep2share

grace c Creampie-Angels

Free High Quality Sex Movies 223962 ryushare uploaded keep2share

Free High Quality Sex Movies 223962

HD ref gurup sex xxx ryushare uploaded keep2share

HD ref gurup sex xxx

Teens 1080p hd porn 3561 ryushare uploaded keep2share

Teens 1080p hd porn 3561

Free Porn Videos Xxx Movies Pussy Porn 3666 ryushare uploaded keep2share

Free Porn Videos Xxx Movies Pussy Porn 3666

Hardcore Sex Hub 1315 ryushare uploaded keep2share

Hardcore Sex Hub 1315

21Naturals.com Chirsten, Inner beauty ryushare uploaded keep2share

21Naturals.com Chirsten, Inner beauty

www xxx utbe com ryushare uploaded keep2share

www xxx utbe com

sxy ccc xx 226377 ryushare uploaded keep2share

sxy ccc xx 226377

Hd quality – Teen sex video 1289 ryushare uploaded keep2share

Hd quality – Teen sex video 1289

Hot sex girls movies download 4277 ryushare uploaded keep2share

Hot sex girls movies download 4277

Spanish Party Hot Teens HD ryushare uploaded keep2share

Spanish Party Hot Teens HD

Report broken links / Post a comment

You must be logged in to post a comment.



General\r\nComplete name : D:HD TeenMania Porn Sex videosxxxTNSDNGlnTNSDNGln.wmv\r\nFormat : Windows Media\r\nFile size : 920 MiB\r\nDuration : 20mn 40s\r\nOverall bit rate mode : Constant\r\nOverall bit rate : 6 222 Kbps\r\nMaximum Overall bit rate : 6 240 Kbps\r\nEncoded date : UTC 2013-12-25 15:51:19.518\r\n\r\nVideo\r\nID : 1\r\nFormat : VC-1\r\nFormat profile : [email protected]\r\nCodec ID : WMV3\r\nCodec ID/Info : Windows Media Video 9\r\nCodec ID/Hint : WMV3\r\nDescription of the codec : Windows Media Video 9 - Professional\r\nDuration : 20mn 40s\r\nBit rate mode : Constant\r\nBit rate : 6 000 Kbps\r\nWidth : 1 920 pixels\r\nHeight : 1 080 pixels\r\nDisplay aspect ratio : 16:9\r\nFrame rate : 25.000 fps\r\nColor space : YUV\r\nChroma subsampling : 4:2:0\r\nBit depth : 8 bits\r\nScan type : Progressive\r\nCompression mode : Lossy\r\nBits/(Pixel*Frame) : 0.116\r\nStream size : 887 MiB (96%)\r\nLanguage : Russian\r\n\r\nAudio\r\nID : 2\r\nFormat : WMA\r\nFormat version : Version 2\r\nCodec ID : 161\r\nCodec ID/Info : Windows Media Audio\r\nDescription of the codec : Windows Media Audio 9.2 - 192 kbps, 48 kHz, stereo 1-pass CBR\r\nDuration : 20mn 40s\r\nBit rate mode : Constant\r\nBit rate : 192 Kbps\r\nChannel(s) : 2 channels\r\nSampling rate : 48.0 KHz\r\nBit depth : 16 bits\r\nStream size : 28.4 MiB (3%)\r\nLanguage : Russian\r\n\r\n