Nude Teens fucking hard 1825

Teenies Videos - Teen Porn, Teen Sex, XXX Free Videos 1828Hot Teen Sex 1819

Posted in Amateur, HD Porn, Sex Movies, Teen | 9302 Views |


Rate this girl !!!




\r\n\r\nhttp://img20.imagetwist.com/i/05282/euizjvsiqfov.jpeg\r\n\r\n Link(538 Mb||19:52||1280*720||MP4)



DOWNLOAD

Keep2share.cc - Uploaded.net - Openload.co - Rapidu.net


http://keep2share.cc/file/51f321b736554
http://ryushare.com/c94xiak1zxfa/SRGFNBty.rar
http://ul.to/p27151h0


Premium here:
uploaded.net
keep2share.cc
rapidu.net.cc


Teens related to Nude Teens fucking hard 1825


HD Teen Sex Tube 1330 ryushare uploaded keep2share

HD Teen Sex Tube 1330

Sweet Teen Porn – Young Porn Videos 3641 ryushare uploaded keep2share

Sweet Teen Porn – Young Porn Videos 3641

xxx hq sexy vedioes 226528 ryushare uploaded keep2share

xxx hq sexy vedioes 226528

Hardcore sex videos in the high definition quality 2214 ryushare uploaded keep2share

Hardcore sex videos in the high definition quality 2214

Nude Teens fucking hard 225375 ryushare uploaded keep2share

Nude Teens fucking hard 225375

Porno movies young teens lesbian 225176 ryushare uploaded keep2share

Porno movies young teens lesbian 225176

Teen Pornstars Orgy ryushare uploaded keep2share

Teen Pornstars Orgy

PORNOZZ FULL 720 226768 ryushare uploaded keep2share

PORNOZZ FULL 720 226768

Girls sex art hd teens videos 5327 ryushare uploaded keep2share

Girls sex art hd teens videos 5327

Teen Sex Porn Videos Free Nude Teens 5135 ryushare uploaded keep2share

Teen Sex Porn Videos Free Nude Teens 5135

Free Young Porn Videos XXX Teen Porn 3495 ryushare uploaded keep2share

Free Young Porn Videos XXX Teen Porn 3495

[RylskyArt.com] Gia – Shadows ryushare uploaded keep2share

[RylskyArt.com] Gia – Shadows

Teen porn movies 3390 ryushare uploaded keep2share

Teen porn movies 3390

Adult Hardcore XXX Sex Videos 224399 ryushare uploaded keep2share

Adult Hardcore XXX Sex Videos 224399

Hardcore sex videos in the high definition quality 224598 ryushare uploaded keep2share

Hardcore sex videos in the high definition quality 224598

Hardcore sex videos in the high definition quality 3582 ryushare uploaded keep2share

Hardcore sex videos in the high definition quality 3582

HD porn teen downloads 2715 ryushare uploaded keep2share

HD porn teen downloads 2715

apetubegirls ryushare uploaded keep2share

apetubegirls

Teen Sex Videos Tube Movies 2090 ryushare uploaded keep2share

Teen Sex Videos Tube Movies 2090

Amateur Teen Sex 224827 ryushare uploaded keep2share

Amateur Teen Sex 224827

gina devine seks 226666 ryushare uploaded keep2share

gina devine seks 226666

Girls do porn downloads 3844 ryushare uploaded keep2share

Girls do porn downloads 3844

proun hup xxx video mp4 ryushare uploaded keep2share

proun hup xxx video mp4

Hardcore Sex Hub 225938 ryushare uploaded keep2share

Hardcore Sex Hub 225938

www xxxsexncon ryushare uploaded keep2share

www xxxsexncon

Tube Young Sex 3436 ryushare uploaded keep2share

Tube Young Sex 3436

New sexy video pc hd ryushare uploaded keep2share

New sexy video pc hd

HQ Sex Movies Download 1132 ryushare uploaded keep2share

HQ Sex Movies Download 1132

Teenage Fuck Clips 2643 ryushare uploaded keep2share

Teenage Fuck Clips 2643

www xxx18yeras movie hot 226733 ryushare uploaded keep2share

www xxx18yeras movie hot 226733

Young Sex Movies 2635 ryushare uploaded keep2share

Young Sex Movies 2635

Hot Teen Sex HD videos 1679 ryushare uploaded keep2share

Hot Teen Sex HD videos 1679

wallpaper of XXX on bed boys and girl 226347 ryushare uploaded keep2share

wallpaper of XXX on bed boys and girl 226347

Teen xxx sex hd 225800 ryushare uploaded keep2share

Teen xxx sex hd 225800

High Definition Movies on HD 4040 ryushare uploaded keep2share

High Definition Movies on HD 4040

Report broken links / Post a comment

You must be logged in to post a comment.



General\r\nComplete name : D:HD Teens Download Porn Sex clips movies Tube.xxxSRGFNBtySRGFNBty.mp4\r\nFormat : MPEG-4\r\nFormat profile : Base Media\r\nCodec ID : isom\r\nFile size : 538 MiB\r\nDuration : 19mn 52s\r\nOverall bit rate mode : Variable\r\nOverall bit rate : 3 783 Kbps\r\nWriting application : Lavf52.111.0\r\n\r\nVideo\r\nID : 1\r\nFormat : AVC\r\nFormat/Info : Advanced Video Codec\r\nFormat profile : [email protected]\r\nFormat settings, CABAC : Yes\r\nFormat settings, ReFrames : 4 frames\r\nCodec ID : avc1\r\nCodec ID/Info : Advanced Video Coding\r\nDuration : 19mn 52s\r\nBit rate : 3 664 Kbps\r\nWidth : 1 280 pixels\r\nHeight : 720 pixels\r\nDisplay aspect ratio : 16:9\r\nFrame rate mode : Constant\r\nFrame rate : 25.000 fps\r\nColor space : YUV\r\nChroma subsampling : 4:2:0\r\nBit depth : 8 bits\r\nScan type : Progressive\r\nBits/(Pixel*Frame) : 0.159\r\nStream size : 521 MiB (97%)\r\nWriting library : x264 core 116\r\nEncoding settings : cabac=1 / ref=3 / deblock=1:0:0 / analyse=0x3:0x113 / me=hex / subme=7 / psy=1 / psy_rd=1.00:0.00 / mixed_ref=1 / me_range=16 / chroma_me=1 / trellis=0 / 8x8dct=1 / cqm=0 / deadzone=21,11 / fast_pskip=1 / chroma_qp_offset=-2 / threads=16 / sliced_threads=0 / nr=0 / decimate=1 / interlaced=0 / bluray_compat=0 / constrained_intra=0 / bframes=8 / b_pyramid=2 / b_adapt=1 / b_bias=0 / direct=1 / weightb=1 / open_gop=0 / weightp=2 / keyint=50 / keyint_min=25 / scenecut=40 / intra_refresh=0 / rc_lookahead=40 / rc=crf / mbtree=1 / crf=20.0 / qcomp=0.60 / qpmin=10 / qpmax=51 / qpstep=4 / ip_ratio=1.41 / aq=1:1.00\r\nLanguage : Russian\r\n\r\nAudio\r\nID : 2\r\nFormat : AAC\r\nFormat/Info : Advanced Audio Codec\r\nFormat profile : LC\r\nCodec ID : 40\r\nDuration : 19mn 52s\r\nBit rate mode : Variable\r\nBit rate : 114 Kbps\r\nMaximum bit rate : 128 Kbps\r\nChannel(s) : 2 channels\r\nChannel positions : Front: L R\r\nSampling rate : 44.1 KHz\r\nCompression mode : Lossy\r\nStream size : 16.2 MiB (3%)\r\nLanguage : Russian\r\n\r\n