Nude Teens fucking hard 1617

HD Teen Sex Tube 1620Nude Teens fucking hard 1613

Posted in Amateur, HD Porn, Sex Movies, Teen | 9676 Views |


Rate this girl !!!




http://img102.imagetwist.com/i/05250/ace3q7qlgo1b.jpeg\r\n\r\n Link(1.02 Gb||26:46||1920*1080||MP4)



DOWNLOAD

Keep2share.cc - Uploaded.net - Openload.co - Rapidu.net


http://keep2share.cc/file/bc166c6384a77
http://ryushare.com/r2uzdlmqxf2q/TKMGRSjn.rar
http://ul.to/hvqg1txx


Premium here:
uploaded.net
keep2share.cc
rapidu.net.cc


Teens related to Nude Teens fucking hard 1617


HD ref gurup sex xxx ryushare uploaded keep2share

HD ref gurup sex xxx

video porn massage porn ryushare uploaded keep2share

video porn massage porn

HQ Sex Movies Download 4226 ryushare uploaded keep2share

HQ Sex Movies Download 4226

Movies Young legal porn 224165 ryushare uploaded keep2share

Movies Young legal porn 224165

8 Teen XXX – Teen Sex 2780 ryushare uploaded keep2share

8 Teen XXX – Teen Sex 2780

Two Boys & One Girl – X-Art ryushare uploaded keep2share

Two Boys & One Girl – X-Art

Young teens tube hot girls free porn video 4952 ryushare uploaded keep2share

Young teens tube hot girls free porn video 4952

phog bf xxx ryushare uploaded keep2share

phog bf xxx

PRONO SEX VIDEO ryushare uploaded keep2share

PRONO SEX VIDEO

WWW YES HD XXX SEX VIDEOO COM 226680 ryushare uploaded keep2share

WWW YES HD XXX SEX VIDEOO COM 226680

18 years girl xxx sex videos) 4610 ryushare uploaded keep2share

18 years girl xxx sex videos) 4610

pronster name sex video xxx ryushare uploaded keep2share

pronster name sex video xxx

Free Porn Videos Xxx Movies Pussy Porn 85 ryushare uploaded keep2share

Free Porn Videos Xxx Movies Pussy Porn 85

Elly (My Secret Lover) ryushare uploaded keep2share

Elly (My Secret Lover)

RealExGerlfriends.com Sammie Daniels – Heavenly Pussy ryushare uploaded keep2share

RealExGerlfriends.com Sammie Daniels – Heavenly Pussy

Teen 18 Porn XXX Clips Naked 224134 ryushare uploaded keep2share

Teen 18 Porn XXX Clips Naked 224134

Teen 18 Porn XXX Clips Naked 225311 ryushare uploaded keep2share

Teen 18 Porn XXX Clips Naked 225311

HD Teen Sex Tube 225487 ryushare uploaded keep2share

HD Teen Sex Tube 225487

Young Virgin Pussy Teen Fuck Tube 224968 ryushare uploaded keep2share

Young Virgin Pussy Teen Fuck Tube 224968

Hardcore Sex Hub 1963 ryushare uploaded keep2share

Hardcore Sex Hub 1963

Teen Sex Videos Tube Movies 3048 ryushare uploaded keep2share

Teen Sex Videos Tube Movies 3048

Porn HD Sex HD Teen Sex 223953 ryushare uploaded keep2share

Porn HD Sex HD Teen Sex 223953

Girls do porn in HD 225551 ryushare uploaded keep2share

Girls do porn in HD 225551

[WowPorn.com] Feona – Humans Needs. R E D ryushare uploaded keep2share

[WowPorn.com] Feona – Humans Needs. R E D

Hot Teen Sex 2988 ryushare uploaded keep2share

Hot Teen Sex 2988

VIOLA BAILEY’S and BEATA UNDINE – HARD – BED + 1 ryushare uploaded keep2share

VIOLA BAILEY’S and BEATA UNDINE – HARD – BED + 1

hd sex videos download new 226623 ryushare uploaded keep2share

hd sex videos download new 226623

8 Teen XXX – Teen Sex 1309 ryushare uploaded keep2share

8 Teen XXX – Teen Sex 1309

hd small mbporn video sites 226424 ryushare uploaded keep2share

hd small mbporn video sites 226424

direct link hd porn 225998 ryushare uploaded keep2share

direct link hd porn 225998

Teens 1080p hd porn 2520 ryushare uploaded keep2share

Teens 1080p hd porn 2520

Porn HD Sex HD Teen Sex 224548 ryushare uploaded keep2share

Porn HD Sex HD Teen Sex 224548

Free High Quality Sex Movies 3471 ryushare uploaded keep2share

Free High Quality Sex Movies 3471

High Definition Movies on HD Teen Porn XXX Tube 1229 ryushare uploaded keep2share

High Definition Movies on HD Teen Porn XXX Tube 1229

HD Porn Videos 4503 ryushare uploaded keep2share

HD Porn Videos 4503

Report broken links / Post a comment

You must be logged in to post a comment.



General\r\nComplete name : D:HD Teens Download Porn Sex clips movies Tube.xxxTKMGRSjnTKMGRSjn.mp4\r\nFormat : MPEG-4\r\nFormat profile : Base Media\r\nCodec ID : isom\r\nFile size : 1.02 GiB\r\nDuration : 26mn 46s\r\nOverall bit rate mode : Variable\r\nOverall bit rate : 5 427 Kbps\r\nWriting application : Lavf52.64.2\r\n\r\nVideo\r\nID : 1\r\nFormat : AVC\r\nFormat/Info : Advanced Video Codec\r\nFormat profile : [email protected]\r\nFormat settings, CABAC : Yes\r\nFormat settings, ReFrames : 2 frames\r\nCodec ID : avc1\r\nCodec ID/Info : Advanced Video Coding\r\nDuration : 26mn 46s\r\nBit rate : 5 315 Kbps\r\nWidth : 1 920 pixels\r\nHeight : 1 080 pixels\r\nDisplay aspect ratio : 16:9\r\nFrame rate mode : Constant\r\nFrame rate : 29.970 fps\r\nColor space : YUV\r\nChroma subsampling : 4:2:0\r\nBit depth : 8 bits\r\nScan type : Progressive\r\nBits/(Pixel*Frame) : 0.086\r\nStream size : 1 018 MiB (98%)\r\nWriting library : x264 core 102 r1666 d058f37\r\nEncoding settings : cabac=1 / ref=2 / deblock=1:0:0 / analyse=0x3:0x113 / me=hex / subme=6 / psy=1 / psy_rd=1.00:0.00 / mixed_ref=0 / me_range=16 / chroma_me=1 / trellis=0 / 8x8dct=1 / cqm=0 / deadzone=21,11 / fast_pskip=1 / chroma_qp_offset=-2 / threads=24 / sliced_threads=0 / nr=0 / decimate=1 / interlaced=0 / constrained_intra=0 / bframes=3 / b_pyramid=0 / b_adapt=1 / b_bias=0 / direct=3 / weightb=1 / open_gop=0 / weightp=2 / keyint=250 / keyint_min=25 / scenecut=40 / intra_refresh=0 / rc_lookahead=40 / rc=crf / mbtree=1 / crf=20.0 / qcomp=0.60 / qpmin=10 / qpmax=51 / qpstep=4 / ip_ratio=1.41 / aq=1:1.00\r\n\r\nAudio\r\nID : 2\r\nFormat : AAC\r\nFormat/Info : Advanced Audio Codec\r\nFormat profile : LC\r\nCodec ID : 40\r\nDuration : 26mn 46s\r\nBit rate mode : Variable\r\nBit rate : 107 Kbps\r\nChannel(s) : 2 channels\r\nChannel positions : Front: L R\r\nSampling rate : 44.1 KHz\r\nCompression mode : Lossy\r\nStream size : 20.4 MiB (2%)\r\n\r\n