Nude Teens fucking hard 1320

HD Teen Sex Tube 1330Hardcore Sex Hub 1315

Posted in HD Porn, Pornstar, Sex Movies, Teen | 11574 Views |


Rate this girl !!!




\r\n\r\n\r\n\r\n\r\n\r\n\r\nhttp://img101.imagetwist.com/i/05191/3f05q3huiqwm.jpeg\r\n\r\n Link(671 Mb||25:40||1280*720||MP4)



DOWNLOAD

Keep2share.cc - Uploaded.net - Openload.co - Rapidu.net


http://ul.to/ggo8qqsh
http://ryushare.com/pyxtx305al3k/NTRSKRlr.rar
http://keep2share.cc/file/c0fe42e6a3121


Premium here:
uploaded.net
keep2share.cc
rapidu.net.cc


Teens related to Nude Teens fucking hard 1320


Teen Sex Movies 1521 ryushare uploaded keep2share

Teen Sex Movies 1521

xxxvedio HD 18 year download ryushare uploaded keep2share

xxxvedio HD 18 year download

Girls sex art hd teens videos 224203 ryushare uploaded keep2share

Girls sex art hd teens videos 224203

Hot Teen Sex 224365 ryushare uploaded keep2share

Hot Teen Sex 224365

full hd smooth sex videos 226484 ryushare uploaded keep2share

full hd smooth sex videos 226484

First time Sexual Films 18 sex xxx 1785 ryushare uploaded keep2share

First time Sexual Films 18 sex xxx 1785

Yours Forever – Lisa ryushare uploaded keep2share

Yours Forever – Lisa

Wow porn hd downloads 225829 ryushare uploaded keep2share

Wow porn hd downloads 225829

Sex videos hd for pc ryushare uploaded keep2share

Sex videos hd for pc

Teens sex mania 223990 ryushare uploaded keep2share

Teens sex mania 223990

HD Teen Sex Tube 2585 ryushare uploaded keep2share

HD Teen Sex Tube 2585

Girls sex art hd teens videos 224410 ryushare uploaded keep2share

Girls sex art hd teens videos 224410

Wow girls porn teens 4237 ryushare uploaded keep2share

Wow girls porn teens 4237

Teen Sex Porn Videos Free Nude Teens 4441 ryushare uploaded keep2share

Teen Sex Porn Videos Free Nude Teens 4441

RealExGirlfriends.com Megan Rain – Brunette Teen ryushare uploaded keep2share

RealExGirlfriends.com Megan Rain – Brunette Teen

download hd fucking video full 226558 ryushare uploaded keep2share

download hd fucking video full 226558

Teen porn movies 3184 ryushare uploaded keep2share

Teen porn movies 3184

Mindy – As We Lay ryushare uploaded keep2share

Mindy – As We Lay

Uploaded net porn XXX 224971 ryushare uploaded keep2share

Uploaded net porn XXX 224971

Sex Teens porn movies 4742 ryushare uploaded keep2share

Sex Teens porn movies 4742

Gina Gerson – Date By The Pool ryushare uploaded keep2share

Gina Gerson – Date By The Pool

Kiara Lord – Window ryushare uploaded keep2share

Kiara Lord – Window

Beata – Sharing A Nymph ryushare uploaded keep2share

Beata – Sharing A Nymph

18OnlyGirls.com – Violette ryushare uploaded keep2share

18OnlyGirls.com – Violette

www video9 in 226088 ryushare uploaded keep2share

www video9 in 226088

Teen Sex Movies 5445 ryushare uploaded keep2share

Teen Sex Movies 5445

HD sex movies downloads 2947 ryushare uploaded keep2share

HD sex movies downloads 2947

Wow porn hd downloads 225831 ryushare uploaded keep2share

Wow porn hd downloads 225831

Uploaded net porn XXX 224345 ryushare uploaded keep2share

Uploaded net porn XXX 224345

Hot Teen Sex HD videos 225940 ryushare uploaded keep2share

Hot Teen Sex HD videos 225940

[FuckStudies.com] Iren ryushare uploaded keep2share

[FuckStudies.com] Iren

Teen Sex Videos Tube Movies 1466 ryushare uploaded keep2share

Teen Sex Videos Tube Movies 1466

Hardcore sex videos in the high definition quality 3582 ryushare uploaded keep2share

Hardcore sex videos in the high definition quality 3582

Adult Hardcore XXX Sex Videos 5564 ryushare uploaded keep2share

Adult Hardcore XXX Sex Videos 5564

wow xxxvideoshd ryushare uploaded keep2share

wow xxxvideoshd

Report broken links / Post a comment

You must be logged in to post a comment.



General\r\nComplete name : D:HD Teens Tube Download Porn Sex clips movies.xxxNTRSKRlrNTRSKRlr.mp4\r\nFormat : MPEG-4\r\nFormat profile : Base Media\r\nCodec ID : isom\r\nFile size : 671 MiB\r\nDuration : 25mn 40s\r\nOverall bit rate : 3 656 Kbps\r\nWriting application : Lavf54.63.104\r\n\r\nVideo\r\nID : 1\r\nFormat : AVC\r\nFormat/Info : Advanced Video Codec\r\nFormat profile : [email protected]\r\nFormat settings, CABAC : Yes\r\nFormat settings, ReFrames : 4 frames\r\nCodec ID : avc1\r\nCodec ID/Info : Advanced Video Coding\r\nDuration : 25mn 40s\r\nBit rate : 3 500 Kbps\r\nWidth : 1 280 pixels\r\nHeight : 720 pixels\r\nDisplay aspect ratio : 16:9\r\nFrame rate mode : Constant\r\nFrame rate : 25.000 fps\r\nColor space : YUV\r\nChroma subsampling : 4:2:0\r\nBit depth : 8 bits\r\nScan type : Progressive\r\nBits/(Pixel*Frame) : 0.152\r\nStream size : 647 MiB (96%)\r\nWriting library : x264 core 120\r\nEncoding settings : cabac=1 / ref=3 / deblock=1:0:0 / analyse=0x3:0x113 / me=hex / subme=6 / psy=1 / psy_rd=1.00:0.00 / mixed_ref=1 / me_range=16 / chroma_me=1 / trellis=2 / 8x8dct=1 / cqm=0 / deadzone=21,11 / fast_pskip=1 / chroma_qp_offset=-2 / threads=12 / sliced_threads=0 / nr=0 / decimate=1 / interlaced=0 / bluray_compat=0 / constrained_intra=0 / bframes=3 / b_pyramid=2 / b_adapt=2 / b_bias=0 / direct=1 / weightb=1 / open_gop=0 / weightp=2 / keyint=60 / keyint_min=25 / scenecut=40 / intra_refresh=0 / rc_lookahead=40 / rc=abr / mbtree=1 / bitrate=3500 / ratetol=1.0 / qcomp=0.60 / qpmin=0 / qpmax=69 / qpstep=4 / ip_ratio=1.41 / aq=1:1.00\r\nLanguage : English\r\n\r\nAudio\r\nID : 2\r\nFormat : AAC\r\nFormat/Info : Advanced Audio Codec\r\nFormat profile : LC\r\nCodec ID : 40\r\nDuration : 25mn 39s\r\nDuration_LastFrame : -11ms\r\nBit rate mode : Constant\r\nBit rate : 128 Kbps\r\nChannel(s) : 2 channels\r\nChannel positions : Front: L R\r\nSampling rate : 44.1 KHz\r\nCompression mode : Lossy\r\nStream size : 23.5 MiB (3%)\r\nLanguage : English\r\n\r\n