Nubiles-Porn.com Olivia Devine, Loving Touch

Angelica, The Red Fox X-Art.comYoungCourtesans.com Shakti – Special Sex Arrangement

Posted in HD Porn, Pornstar, Sex Movies, Teen | 20589 Views |


Rate this girl !!!




[Nubiles-Porn.com] Olivia Devine (Loving Touch / 01.07.14) [2014, All sex, 1080p]

\r\n \r\n\r\npic\r\n

\r\n

The name of the actress: Olivia Devine\r\nName of roller: Loving Touch / 01.07.14\r\nSubsites and site: nubiles-Porn.com\r\nProduction year: 2014\r\nGenre: All sex\r\nDuration: 00:29:45\r\nHD Video Type: 1080p\r\nVideo Format: MP4\r\nVideo codec: H.264 / AVC\r\nAudio codec: AAC\r\nVideo: MPEG4 Video (H264) 1920×1080 29.97fps 6096kbps\r\nAudio: AAC 44100Hz stereo 151kbps

\r\n

\r\nhttp://i64.fastpic.ru/big/2014/0701/f6/3696b5f3cc910859d34a202564ac09f6.jpg\r\n\r\n 



DOWNLOAD

Keep2share.cc - Uploaded.net - Openload.co - Rapidu.net



http://played.to/rtfdkkkscoha
http://ul.to/tie1qzxt/n.ub.ile.s.p.rn_lo.v.in.g_t.ou.ch_19.20.mp4



Premium here:
uploaded.net
keep2share.cc
rapidu.net.cc


Teens related to Nubiles-Porn.com Olivia Devine, Loving Touch


HD Teen Sex Tube 2585 ryushare uploaded keep2share

HD Teen Sex Tube 2585

Small girls and boys porn 3511 ryushare uploaded keep2share

Small girls and boys porn 3511

Hot Japanese ryushare uploaded keep2share

Hot Japanese

HD Sex World Videos High Definition Free Porn 1604 ryushare uploaded keep2share

HD Sex World Videos High Definition Free Porn 1604

real virgin Teent pussy image Hd com ryushare uploaded keep2share

real virgin Teent pussy image Hd com

HD Porn Teen Sex Videos 1629 ryushare uploaded keep2share

HD Porn Teen Sex Videos 1629

Teen porn movies 225314 ryushare uploaded keep2share

Teen porn movies 225314

Wow porn tube movies 224392 ryushare uploaded keep2share

Wow porn tube movies 224392

Young Sex Movies 2635 ryushare uploaded keep2share

Young Sex Movies 2635

TrickyMasseur.com Avina ryushare uploaded keep2share

TrickyMasseur.com Avina

kylee wow girls porn tubes ryushare uploaded keep2share

kylee wow girls porn tubes

Brandy Naughty – First Time Auditions ryushare uploaded keep2share

Brandy Naughty – First Time Auditions

Sweet Teen Porn – Young Porn Videos 224812 ryushare uploaded keep2share

Sweet Teen Porn – Young Porn Videos 224812

Hot Teen Sex HD videos 1748 ryushare uploaded keep2share

Hot Teen Sex HD videos 1748

Young teens tube hot girls free porn video 5000 ryushare uploaded keep2share

Young teens tube hot girls free porn video 5000

hd xxx girls collage image 226148 ryushare uploaded keep2share

hd xxx girls collage image 226148

Kail Takes on Two Horny Studs for some fun ryushare uploaded keep2share

Kail Takes on Two Horny Studs for some fun

Teen porn movies 1954 ryushare uploaded keep2share

Teen porn movies 1954

Kathia Nobili, Meg Magic – Low Self-Esteem ryushare uploaded keep2share

Kathia Nobili, Meg Magic – Low Self-Esteem

Wow porn tube movies 225396 ryushare uploaded keep2share

Wow porn tube movies 225396

Young teens tube hot girls free porn video 2600 ryushare uploaded keep2share

Young teens tube hot girls free porn video 2600

sex compress videos 226457 ryushare uploaded keep2share

sex compress videos 226457

Naomi Nevena ryushare uploaded keep2share

Naomi Nevena

Sweet Teen Porn – Young Porn Videos 4437 ryushare uploaded keep2share

Sweet Teen Porn – Young Porn Videos 4437

Free Teen Porn Videos at Teen Sex Tube XXX 225611 ryushare uploaded keep2share

Free Teen Porn Videos at Teen Sex Tube XXX 225611

Hd quality – Teen sex video 223701 ryushare uploaded keep2share

Hd quality – Teen sex video 223701

The best Teen sex 4035 ryushare uploaded keep2share

The best Teen sex 4035

Two cocks for a teen ryushare uploaded keep2share

Two cocks for a teen

PORNOZZ FULL 720 226768 ryushare uploaded keep2share

PORNOZZ FULL 720 226768

xxx 18porn sex ryushare uploaded keep2share

xxx 18porn sex

xxx hd first time sex pic ryushare uploaded keep2share

xxx hd first time sex pic

Sex with porn model in garaje Orgy Threesome 4772 ryushare uploaded keep2share

Sex with porn model in garaje Orgy Threesome 4772

Vintage Collection – The Photographer ryushare uploaded keep2share

Vintage Collection – The Photographer

Scarlet, Christine – Fantasy Come True ryushare uploaded keep2share

Scarlet, Christine – Fantasy Come True

Analized.com] Kate England (Kate Englands Ass Punished by Huge Black Cock) [2016 г., All Sex, Anal, 720p] ryushare uploaded keep2share

Analized.com] Kate England (Kate Englands Ass Punished by Huge Black Cock) [2016 г., All Sex, Anal, 720p]

Report broken links / Post a comment

You must be logged in to post a comment.



HD Teens Movies Young Downloads Online Clips Scenes 2 [Nubiles-Porn.com] Olivia Devine (Lovng Touch / 01.07.14) [2014, All sex, 1080p]\r\nGeneral\r\nComplete name : J:HD Teens Movies Young Downloads Online Clips Scenes 2[Nubiles-Porn.com] Olivia Devine (Lovng Touch / 01.07.14) [2014, All sex, 1080p]h_19.20.mp4\r\nFormat : MPEG-4\r\nFormat profile : Base Media\r\nCodec ID : isom\r\nFile size : 1.30 GiB\r\nDuration : 29mn 45s\r\nOverall bit rate mode : Variable\r\nOverall bit rate : 6 256 Kbps\r\nWriting application : Lavf55.37.101\r\n\r\nVideo\r\nID : 1\r\nFormat : AVC\r\nFormat/Info : Advanced Video Codec\r\nFormat profile : [email protected]\r\nFormat settings, CABAC : Yes\r\nFormat settings, ReFrames : 4 frames\r\nCodec ID : avc1\r\nCodec ID/Info : Advanced Video Coding\r\nDuration : 29mn 45s\r\nBit rate : 6 096 Kbps\r\nWidth : 1 920 pixels\r\nHeight : 1 080 pixels\r\nDisplay aspect ratio : 16:9\r\nFrame rate mode : Constant\r\nFrame rate : 29.970 fps\r\nColor space : YUV\r\nChroma subsampling : 4:2:0\r\nBit depth : 8 bits\r\nScan type : Progressive\r\nBits/(Pixel*Frame) : 0.098\r\nStream size : 1.27 GiB (97%)\r\nWriting library : x264 core 142\r\nEncoding settings : cabac=1 / ref=2 / deblock=1:-1:-1 / analyse=0x1:0x111 / me=umh / subme=8 / psy=1 / psy_rd=1.00:0.15 / mixed_ref=1 / me_range=16 / chroma_me=1 / trellis=1 / 8x8dct=0 / cqm=0 / deadzone=21,11 / fast_pskip=1 / chroma_qp_offset=-3 / threads=24 / lookahead_threads=4 / sliced_threads=0 / nr=0 / decimate=1 / interlaced=0 / bluray_compat=0 / constrained_intra=0 / bframes=3 / b_pyramid=2 / b_adapt=2 / b_bias=0 / direct=3 / weightb=1 / open_gop=0 / weightp=0 / keyint=250 / keyint_min=25 / scenecut=40 / intra_refresh=0 / rc_lookahead=50 / rc=crf / mbtree=1 / crf=18.0 / qcomp=0.60 / qpmin=0 / qpmax=69 / qpstep=4 / ip_ratio=1.40 / aq=1:1.00\r\nLanguage : English\r\n\r\nAudio\r\nID : 2\r\nFormat : AAC\r\nFormat/Info : Advanced Audio Codec\r\nFormat profile : LC\r\nCodec ID : 40\r\nDuration : 29mn 45s\r\nBit rate mode : Variable\r\nBit rate : 152 Kbps\r\nMaximum bit rate : 196 Kbps\r\nChannel count : 2 channels\r\nChannel positions : Front: L R\r\nSampling rate : 44.1 KHz\r\nCompression mode : Lossy\r\nStream size : 32.3 MiB (2%)\r\nLanguage : English\r\n\r\n