Nomi – Bikini Land

Grace Hot TeenWowGirls Livia Grace C Getting Off Without A Cock

Posted in HD Porn, Sex Movies, Solo, Teen | 11878 Views |


Rate this girl !!!




Nomi – Bikini Land\r\n\r\nNomi – Bikini Land\r\n\r\nNomi – Bikini Land\r\n\r\n\r\nFile: Nomi – Bikini Land.mp4\r\nSize: 212578124 bytes (202.73 MiB), duration: 00:16:27, avg.bitrate: 1723 kb/s\r\nAudio: aac, 44100 Hz, 2 channels, s16, 123 kb/s (und)\r\nVideo: h264, yuv420p, 1280×720, 1593 kb/s, 29.97 fps(r) (und)\r\n



DOWNLOAD

Keep2share.cc - Uploaded.net - Openload.co - Rapidu.net


http://keep2share.cc/file/5276f6012b834
http://ul.to/88nwryu5
http://ryushare.com/427beb8cdde0/N0m1.B1k1n1.L4nd.rar


Premium here:
uploaded.net
keep2share.cc
rapidu.net.cc

Teens related to Nomi – Bikini Land


TrickyMasseur.com Aline ryushare uploaded keep2share

TrickyMasseur.com Aline

Small girls and boys porn 3511 ryushare uploaded keep2share

Small girls and boys porn 3511

Watch Teen Sex Videos HD 1595 ryushare uploaded keep2share

Watch Teen Sex Videos HD 1595

yess xxx mkv 226512 ryushare uploaded keep2share

yess xxx mkv 226512

Klixen – K Fantasies of a Piano Player ryushare uploaded keep2share

Klixen – K Fantasies of a Piano Player

Good Teen Tube Sexy Young Naked Girls Movies 224389 ryushare uploaded keep2share

Good Teen Tube Sexy Young Naked Girls Movies 224389

xxx movies hd for mobile com ryushare uploaded keep2share

xxx movies hd for mobile com

Nancey – Dreams Come To Life ryushare uploaded keep2share

Nancey – Dreams Come To Life

Little pornstar teen with a big hole ryushare uploaded keep2share

Little pornstar teen with a big hole

HD sex movies downloads 2857 ryushare uploaded keep2share

HD sex movies downloads 2857

Watch Teen Sex Videos HD 225475 ryushare uploaded keep2share

Watch Teen Sex Videos HD 225475

First time Sexual Films 18 sex xxx 224947 ryushare uploaded keep2share

First time Sexual Films 18 sex xxx 224947

Young legal porn clips 3026 ryushare uploaded keep2share

Young legal porn clips 3026

Watch Teen Sex Videos HD 224956 ryushare uploaded keep2share

Watch Teen Sex Videos HD 224956

very low size hd porn videos ryushare uploaded keep2share

very low size hd porn videos

Milagres – A Cool Tool For Me ryushare uploaded keep2share

Milagres – A Cool Tool For Me

xxxvedio HD 18 year download ryushare uploaded keep2share

xxxvedio HD 18 year download

Movies Young legal porn 225865 ryushare uploaded keep2share

Movies Young legal porn 225865

hd hardcoresex teensex download 226688 ryushare uploaded keep2share

hd hardcoresex teensex download 226688

Porn party teen girls 225121 ryushare uploaded keep2share

Porn party teen girls 225121

Cadence – Sex Massage ryushare uploaded keep2share

Cadence – Sex Massage

Hd video download porn china 226385 ryushare uploaded keep2share

Hd video download porn china 226385

Sweet Teen Porn – Young Porn Videos 224138 ryushare uploaded keep2share

Sweet Teen Porn – Young Porn Videos 224138

World Boyfriends Xxx Videos full HD ryushare uploaded keep2share

World Boyfriends Xxx Videos full HD

Wow girls hd porn teens 225278 ryushare uploaded keep2share

Wow girls hd porn teens 225278

Hd avi xxx sexy in ryushare uploaded keep2share

Hd avi xxx sexy in

HD Porn Teen Sex Videos 2182 ryushare uploaded keep2share

HD Porn Teen Sex Videos 2182

Hot Teen Sex 224463 ryushare uploaded keep2share

Hot Teen Sex 224463

xvideo hd movies free download 226781 ryushare uploaded keep2share

xvideo hd movies free download 226781

Paula Shy – AfterParty – Sex Art ryushare uploaded keep2share

Paula Shy – AfterParty – Sex Art

www sex video pc porn 226242 ryushare uploaded keep2share

www sex video pc porn 226242

Adult Hardcore XXX Sex Videos 3788 ryushare uploaded keep2share

Adult Hardcore XXX Sex Videos 3788

Sex Teens porn movies 3971 ryushare uploaded keep2share

Sex Teens porn movies 3971

Watch Teen Sex Videos HD 2205 ryushare uploaded keep2share

Watch Teen Sex Videos HD 2205

Alice – The Repairman’s Groupie – Episode 413 ryushare uploaded keep2share

Alice – The Repairman’s Groupie – Episode 413

Report broken links / Post a comment

You must be logged in to post a comment.



General\r\nComplete name : H:HD TEENS PORN RYUSHARE UPLOADED KEEP2SHARENomi - Bikini Land.mp4\r\nFormat : MPEG-4\r\nFormat profile : Base Media\r\nCodec ID : isom\r\nFile size : 203 MiB\r\nDuration : 16mn 27s\r\nOverall bit rate mode : Variable\r\nOverall bit rate : 1 723 Kbps\r\nWriting application : Lavf52.64.2\r\n\r\nVideo\r\nID : 1\r\nFormat : AVC\r\nFormat/Info : Advanced Video Codec\r\nFormat profile : [email protected]\r\nFormat settings, CABAC : Yes\r\nFormat settings, ReFrames : 2 frames\r\nCodec ID : avc1\r\nCodec ID/Info : Advanced Video Coding\r\nDuration : 16mn 27s\r\nBit rate : 1 593 Kbps\r\nWidth : 1 280 pixels\r\nHeight : 720 pixels\r\nDisplay aspect ratio : 16:9\r\nFrame rate mode : Constant\r\nFrame rate : 29.970 fps\r\nColor space : YUV\r\nChroma subsampling : 4:2:0\r\nBit depth : 8 bits\r\nScan type : Progressive\r\nBits/(Pixel*Frame) : 0.058\r\nStream size : 188 MiB (92%)\r\nWriting library : x264 core 102 r1666 d058f37\r\nEncoding settings : cabac=1 / ref=2 / deblock=1:0:0 / analyse=0x3:0x113 / me=hex / subme=6 / psy=1 / psy_rd=1.00:0.00 / mixed_ref=0 / me_range=16 / chroma_me=1 / trellis=0 / 8x8dct=1 / cqm=0 / deadzone=21,11 / fast_pskip=1 / chroma_qp_offset=-2 / threads=24 / sliced_threads=0 / nr=0 / decimate=1 / interlaced=0 / constrained_intra=0 / bframes=3 / b_pyramid=0 / b_adapt=1 / b_bias=0 / direct=3 / weightb=1 / open_gop=0 / weightp=2 / keyint=250 / keyint_min=25 / scenecut=40 / intra_refresh=0 / rc_lookahead=40 / rc=crf / mbtree=1 / crf=20.0 / qcomp=0.60 / qpmin=10 / qpmax=51 / qpstep=4 / ip_ratio=1.41 / aq=1:1.00\r\n\r\nAudio\r\nID : 2\r\nFormat : AAC\r\nFormat/Info : Advanced Audio Codec\r\nFormat profile : LC\r\nCodec ID : 40\r\nDuration : 16mn 27s\r\nBit rate mode : Variable\r\nBit rate : 124 Kbps\r\nChannel(s) : 2 channels\r\nChannel positions : Front: L R\r\nSampling rate : 44.1 KHz\r\nCompression mode : Lossy\r\nDelay relative to video : 33ms\r\nStream size : 14.6 MiB (7%)