Molly – Deep and passionate anal

Ariana Marie – Post Workout SexUliya – Special surprise for a sex date

Posted in HD Porn, Pornstar, Sex Movies, Teen | 9056 Views |


Rate this girl !!!




[TeensAnalyzed.com] Molly – Deep and passionate anal

\r\n

cover

\r\n

1920x1080p / MP4 / 744.6 MB

\r\n

SCREENSHOTS:

\r\n

screens

\r\n



DOWNLOAD

Keep2share.cc - Uploaded.net - Openload.co - Rapidu.net


http://ul.to/45p1m2t1/pf3d7030_Dee.p_and_pas.sionate_an.al.mp4
http://k2s.cc/file/5f4d4a6f65b74/pf3d7030_Dee.p_and_pas.sionate_an.al.mp4
http://fileom.com/dyp13nypch0w/pf3d7030_Dee.p_and_pas.sionate_an.al.mp4.html


Premium here:
uploaded.net
keep2share.cc
rapidu.net.cc


Teens related to Molly – Deep and passionate anal


Nicole – Summertime sex hookup ryushare uploaded keep2share

Nicole – Summertime sex hookup

College Teen Sex 224407 ryushare uploaded keep2share

College Teen Sex 224407

www hd sex xxxcome ryushare uploaded keep2share

www hd sex xxxcome

Teen Porn XXX Tube 225857 ryushare uploaded keep2share

Teen Porn XXX Tube 225857

Free Porn Videos Xxx Movies Pussy Porn 5286 ryushare uploaded keep2share

Free Porn Videos Xxx Movies Pussy Porn 5286

Sweet Teen Porn – Young Porn Videos 224912 ryushare uploaded keep2share

Sweet Teen Porn – Young Porn Videos 224912

The best Teen sex 225598 ryushare uploaded keep2share

The best Teen sex 225598

pornosexxx hd 226414 ryushare uploaded keep2share

pornosexxx hd 226414

free sex tubes direct download 226472 ryushare uploaded keep2share

free sex tubes direct download 226472

Sex in bed with beautiful redhead ryushare uploaded keep2share

Sex in bed with beautiful redhead

Free High Quality Sex Movies 225016 ryushare uploaded keep2share

Free High Quality Sex Movies 225016

Mindy – As We Lay ryushare uploaded keep2share

Mindy – As We Lay

Teens in Porno young porn videos and free teen sex 5182 ryushare uploaded keep2share

Teens in Porno young porn videos and free teen sex 5182

Young Virgin Pussy Teen Fuck Tube 223802 ryushare uploaded keep2share

Young Virgin Pussy Teen Fuck Tube 223802

Tube Young Sex 224260 ryushare uploaded keep2share

Tube Young Sex 224260

wwwx video donlose hd com 226152 ryushare uploaded keep2share

wwwx video donlose hd com 226152

Teen Sex Movies 5445 ryushare uploaded keep2share

Teen Sex Movies 5445

TrickyMasseur.com Raquel ryushare uploaded keep2share

TrickyMasseur.com Raquel

www xxx Bif videos HD ryushare uploaded keep2share

www xxx Bif videos HD

XXX young porn sex 3841 ryushare uploaded keep2share

XXX young porn sex 3841

Nude Teens fucking hard 4300 ryushare uploaded keep2share

Nude Teens fucking hard 4300

Teen porn xxx 224307 ryushare uploaded keep2share

Teen porn xxx 224307

vergen xxx hd ryushare uploaded keep2share

vergen xxx hd

FantasyHD.com – Emily Grey – Teen Thigh Gap ryushare uploaded keep2share

FantasyHD.com – Emily Grey – Teen Thigh Gap

Teen sex xxx hd 2916 ryushare uploaded keep2share

Teen sex xxx hd 2916

boy xxx walpapr 226621 ryushare uploaded keep2share

boy xxx walpapr 226621

Hd young videos 2232 ryushare uploaded keep2share

Hd young videos 2232

8 Teen XXX – Teen Sex 3987 ryushare uploaded keep2share

8 Teen XXX – Teen Sex 3987

Hot hd teen sex videos 4668 ryushare uploaded keep2share

Hot hd teen sex videos 4668

hd com 18 year sex mobi 226401 ryushare uploaded keep2share

hd com 18 year sex mobi 226401

Young XXX Tube Videos 3807 ryushare uploaded keep2share

Young XXX Tube Videos 3807

Klixen – K Two Teasing Tongues 12 – A ryushare uploaded keep2share

Klixen – K Two Teasing Tongues 12 – A

gibitube com porn 226071 ryushare uploaded keep2share

gibitube com porn 226071

HD Sex World Videos High Definition Free Porn 224514 ryushare uploaded keep2share

HD Sex World Videos High Definition Free Porn 224514

18YearsOld.com Megan Rain – Playing Hooky ryushare uploaded keep2share

18YearsOld.com Megan Rain – Playing Hooky

Report broken links / Post a comment

You must be logged in to post a comment.



General\r\nComplete name : D:[TeensAnalyzed.com] Molly – Deep and passionate anall.mp4\r\nFormat : MPEG-4\r\nFormat profile : Base Media\r\nCodec ID : isom\r\nFile size : 745 MiB\r\nDuration : 19mn 50s\r\nOverall bit rate mode : Variable\r\nOverall bit rate : 5 246 Kbps\r\nWriting application : Lavf54.22.101\r\n\r\nVideo\r\nID : 1\r\nFormat : AVC\r\nFormat/Info : Advanced Video Codec\r\nFormat profile : [email protected]\r\nFormat settings, CABAC : Yes\r\nFormat settings, ReFrames : 4 frames\r\nCodec ID : avc1\r\nCodec ID/Info : Advanced Video Coding\r\nDuration : 19mn 50s\r\nBit rate : 5 133 Kbps\r\nWidth : 1 920 pixels\r\nHeight : 1 080 pixels\r\nDisplay aspect ratio : 16:9\r\nFrame rate mode : Constant\r\nFrame rate : 25.000 fps\r\nColor space : YUV\r\nChroma subsampling : 4:2:0\r\nBit depth : 8 bits\r\nScan type : Progressive\r\nBits/(Pixel*Frame) : 0.099\r\nStream size : 729 MiB (98%)\r\nWriting library : x264 core 125\r\nEncoding settings : cabac=1 / ref=3 / deblock=1:0:0 / analyse=0x3:0x113 / me=hex / subme=7 / psy=1 / psy_rd=1.00:0.00 / mixed_ref=1 / me_range=16 / chroma_me=1 / trellis=0 / 8x8dct=1 / cqm=0 / deadzone=21,11 / fast_pskip=1 / chroma_qp_offset=-2 / threads=16 / lookahead_threads=2 / sliced_threads=0 / nr=0 / decimate=1 / interlaced=0 / bluray_compat=0 / constrained_intra=0 / bframes=8 / b_pyramid=2 / b_adapt=1 / b_bias=0 / direct=1 / weightb=1 / open_gop=0 / weightp=2 / keyint=50 / keyint_min=5 / scenecut=40 / intra_refresh=0 / rc_lookahead=40 / rc=crf / mbtree=1 / crf=20.0 / qcomp=0.60 / qpmin=0 / qpmax=69 / qpstep=4 / ip_ratio=1.40 / aq=1:1.00\r\nLanguage : Russian\r\n\r\nAudio\r\nID : 2\r\nFormat : AAC\r\nFormat/Info : Advanced Audio Codec\r\nFormat profile : LC\r\nCodec ID : 40\r\nDuration : 19mn 50s\r\nBit rate mode : Variable\r\nBit rate : 107 Kbps\r\nMaximum bit rate : 128 Kbps\r\nChannel(s) : 2 channels\r\nChannel positions : Front: L R\r\nSampling rate : 44.1 KHz\r\nCompression mode : Lossy\r\nStream size : 15.2 MiB (2%)\r\nLanguage : Russian\r\n\r\n