Mindy – As We Lay

Janice Griffith – Fucking Her RightCandice Dare – Shopping Spree

Posted in Amateur, HD Porn, Sex Movies, Teen | 10640 Views |


Rate this girl !!!




cover

\r\n

1920x1080p / MP4 / 1.12 GB

\r\n\r\n

[NubileFilms.com] Mindy – As We Lay

\r\n \r\n

SCREENSHOTS:

\r\n

screens



DOWNLOAD

Keep2share.cc - Uploaded.net - Openload.co - Rapidu.net


http://k2s.cc/file/e51ae1757bd6a/nub1l3f.14.O9.O9.m1ndy.4s.w3.l4y.mp4
http://streamcloud.eu/sf26g7mpdjtv/nub1l3f.14.O9.O9.m1ndy.4s.w3.l4y.mp4.html
http://ul.to/ca3f8men/nub1l3f.14.O9.O9.m1ndy.4s.w3.l4y.mp4


Premium here:
uploaded.net
keep2share.cc
rapidu.net.cc


Teens related to Mindy – As We Lay


Linda S – Making Up For Lost Time ryushare uploaded keep2share

Linda S – Making Up For Lost Time

Hot Teen Sex 224463 ryushare uploaded keep2share

Hot Teen Sex 224463

Wow Girls Porn Clips download 224386 ryushare uploaded keep2share

Wow Girls Porn Clips download 224386

Young Virgin Pussy Teen Fuck Tube 225554 ryushare uploaded keep2share

Young Virgin Pussy Teen Fuck Tube 225554

George on Morgan ryushare uploaded keep2share

George on Morgan

Porn teen hd downloads 224010 ryushare uploaded keep2share

Porn teen hd downloads 224010

Small girls and boys porn 4304 ryushare uploaded keep2share

Small girls and boys porn 4304

Hardcore Sex Hub 225185 ryushare uploaded keep2share

Hardcore Sex Hub 225185

Teen porn movies 3006 ryushare uploaded keep2share

Teen porn movies 3006

Porno movies young teens lesbian 224491 ryushare uploaded keep2share

Porno movies young teens lesbian 224491

hd porn videos in low size download free 226092 ryushare uploaded keep2share

hd porn videos in low size download free 226092

wow cum com hd 226397 ryushare uploaded keep2share

wow cum com hd 226397

Two cocks for a teen ryushare uploaded keep2share

Two cocks for a teen

Small girls and boys porn 4478 ryushare uploaded keep2share

Small girls and boys porn 4478

Small girls and boys porn 4639 ryushare uploaded keep2share

Small girls and boys porn 4639

Uploaded net porn 3849 ryushare uploaded keep2share

Uploaded net porn 3849

Teens in Porno young porn videos and free teen sex 1763 ryushare uploaded keep2share

Teens in Porno young porn videos and free teen sex 1763

Sweet Teen Porn – Young Porn Videos 4113 ryushare uploaded keep2share

Sweet Teen Porn – Young Porn Videos 4113

High Definition Movies on HD Teen Porn XXX Tube 1687 ryushare uploaded keep2share

High Definition Movies on HD Teen Porn XXX Tube 1687

Teen 18 Porn XXX Clips Naked 3465 ryushare uploaded keep2share

Teen 18 Porn XXX Clips Naked 3465

Hot hd teen sex videos 4713 ryushare uploaded keep2share

Hot hd teen sex videos 4713

www 8 ponr hb mp4 vibeo 226770 ryushare uploaded keep2share

www 8 ponr hb mp4 vibeo 226770

Hot Teen Sex HD videos 3863 ryushare uploaded keep2share

Hot Teen Sex HD videos 3863

Teen xxx sex hd 224866 ryushare uploaded keep2share

Teen xxx sex hd 224866

K Three Teasing Tongues 4 ryushare uploaded keep2share

K Three Teasing Tongues 4

Teen porn movies 225211 ryushare uploaded keep2share

Teen porn movies 225211

HD Sex World Videos High Definition Free Porn 3888 ryushare uploaded keep2share

HD Sex World Videos High Definition Free Porn 3888

Lucy Li & William Zeff – With Love ryushare uploaded keep2share

Lucy Li & William Zeff – With Love

Wow porn tube movies 224745 ryushare uploaded keep2share

Wow porn tube movies 224745

18OnlyGirls – Natasha – 25 Clips Video Pack ryushare uploaded keep2share

18OnlyGirls – Natasha – 25 Clips Video Pack

xxxhqvideo dld ryushare uploaded keep2share

xxxhqvideo dld

Teen xxx sex hd 224369 ryushare uploaded keep2share

Teen xxx sex hd 224369

Hardcore sex videos in the high definition quality 2374 ryushare uploaded keep2share

Hardcore sex videos in the high definition quality 2374

wwwx video donlose hd com 226152 ryushare uploaded keep2share

wwwx video donlose hd com 226152

Hot Teen Sex 224500 ryushare uploaded keep2share

Hot Teen Sex 224500

Report broken links / Post a comment

You must be logged in to post a comment.



General\r\nComplete name : D:[NubileFilms.com] Mindy – As We Lay.mp4\r\nFormat : MPEG-4\r\nFormat profile : Base Media\r\nCodec ID : isom\r\nFile size : 1.12 GiB\r\nDuration : 21mn 22s\r\nOverall bit rate : 7 470 Kbps\r\nMovie name : RARBG.COM - NubileFilms.14.09.09.Mindy.As.We.Lay.XXX.1080p.MP4-KTR\r\nWriting application : Lavf55.48.100\r\nComment : RARBG.COM - NubileFilms.14.09.09.Mindy.As.We.Lay.XXX.1080p.MP4-KTR\r\n\r\nVideo\r\nID : 1\r\nFormat : AVC\r\nFormat/Info : Advanced Video Codec\r\nFormat profile : [email protected]\r\nFormat settings, CABAC : Yes\r\nFormat settings, ReFrames : 4 frames\r\nCodec ID : avc1\r\nCodec ID/Info : Advanced Video Coding\r\nDuration : 21mn 22s\r\nBit rate : 7 311 Kbps\r\nWidth : 1 920 pixels\r\nHeight : 1 080 pixels\r\nDisplay aspect ratio : 16:9\r\nFrame rate mode : Constant\r\nFrame rate : 25.000 fps\r\nColor space : YUV\r\nChroma subsampling : 4:2:0\r\nBit depth : 8 bits\r\nScan type : Progressive\r\nBits/(Pixel*Frame) : 0.141\r\nStream size : 1.09 GiB (98%)\r\nWriting library : x264 core 142\r\nEncoding settings : cabac=1 / ref=2 / deblock=1:-1:-1 / analyse=0x1:0x111 / me=umh / subme=8 / psy=1 / psy_rd=1.00:0.15 / mixed_ref=1 / me_range=16 / chroma_me=1 / trellis=1 / 8x8dct=0 / cqm=0 / deadzone=21,11 / fast_pskip=1 / chroma_qp_offset=-3 / threads=24 / lookahead_threads=4 / sliced_threads=0 / nr=0 / decimate=1 / interlaced=0 / bluray_compat=0 / constrained_intra=0 / bframes=3 / b_pyramid=2 / b_adapt=2 / b_bias=0 / direct=3 / weightb=1 / open_gop=0 / weightp=0 / keyint=240 / keyint_min=24 / scenecut=40 / intra_refresh=0 / rc_lookahead=50 / rc=crf / mbtree=1 / crf=18.0 / qcomp=0.60 / qpmin=0 / qpmax=69 / qpstep=4 / ip_ratio=1.40 / aq=1:1.00\r\nLanguage : English\r\n\r\nAudio\r\nID : 2\r\nFormat : AAC\r\nFormat/Info : Advanced Audio Codec\r\nFormat profile : LC\r\nCodec ID : 40\r\nDuration : 21mn 22s\r\nDuration_LastFrame : 13ms\r\nBit rate mode : Constant\r\nBit rate : 152 Kbps\r\nChannel(s) : 2 channels\r\nChannel positions : Front: L R\r\nSampling rate : 44.1 KHz\r\nCompression mode : Lossy\r\nStream size : 23.2 MiB (2%)\r\nLanguage : English\r\n\r\n