Massage girl

Adriana - Slut in a Tu TuCadence - Sex Massage

Posted in Amateur, HD Porn, Sex Movies, Teen | 9295 Views |


Rate this girl !!!




vlcsnap-2014-09-21-22h00m52s130



DOWNLOAD

Keep2share.cc - Uploaded.net - Openload.co - Rapidu.net


http://k2s.cc/file/14c88a135b2ae/yp.mg18140814c.mp4
http://ul.to/1ujk4ycf/yp.mg18140814c.mp4


Premium here:
uploaded.net
keep2share.cc
rapidu.net.cc


Teens related to Massage girl


Teenies Videos – Teen Porn, Teen Sex, XXX Free Videos 1306 ryushare uploaded keep2share

Teenies Videos – Teen Porn, Teen Sex, XXX Free Videos 1306

Amateur Teen Sex 223903 ryushare uploaded keep2share

Amateur Teen Sex 223903

Tube Young Sex 5078 ryushare uploaded keep2share

Tube Young Sex 5078

pronster name sex video xxx ryushare uploaded keep2share

pronster name sex video xxx

xxxnx videos hd 18 con 226659 ryushare uploaded keep2share

xxxnx videos hd 18 con 226659

www hdsexse vidio 226293 ryushare uploaded keep2share

www hdsexse vidio 226293

Hd quality – Teen sex video 1289 ryushare uploaded keep2share

Hd quality – Teen sex video 1289

Kira Queen ryushare uploaded keep2share

Kira Queen

Nude Teens fucking hard 5025 ryushare uploaded keep2share

Nude Teens fucking hard 5025

Hot download sex girls movies 5611 ryushare uploaded keep2share

Hot download sex girls movies 5611

Porn shortest videos free download ryushare uploaded keep2share

Porn shortest videos free download

HD Teen Sex Tube 224831 ryushare uploaded keep2share

HD Teen Sex Tube 224831

farst taim sex downlod ryushare uploaded keep2share

farst taim sex downlod

Hot Teen Sex HD videos 224776 ryushare uploaded keep2share

Hot Teen Sex HD videos 224776

Porn HD Sex HD Teen Sex 3480 ryushare uploaded keep2share

Porn HD Sex HD Teen Sex 3480

www 18 xxxvids com 226627 ryushare uploaded keep2share

www 18 xxxvids com 226627

Hd quality – Teen sex video 223909 ryushare uploaded keep2share

Hd quality – Teen sex video 223909

www HD SCORE PLAY VERONIKA PORN FULL VIDEOS FREE DOWUNLOD COM ryushare uploaded keep2share

www HD SCORE PLAY VERONIKA PORN FULL VIDEOS FREE DOWUNLOD COM

pc hd porn xxx video ryushare uploaded keep2share

pc hd porn xxx video

xvideohqdownlod 226407 ryushare uploaded keep2share

xvideohqdownlod 226407

hd sex teen vidio 226777 ryushare uploaded keep2share

hd sex teen vidio 226777

best teen sex mobi 226301 ryushare uploaded keep2share

best teen sex mobi 226301

Teen xxx sex hd 224286 ryushare uploaded keep2share

Teen xxx sex hd 224286

Wow porn hd downloads 225170 ryushare uploaded keep2share

Wow porn hd downloads 225170

Watch Teen Sex Videos HD 1595 ryushare uploaded keep2share

Watch Teen Sex Videos HD 1595

Uploaded net porn 2517 ryushare uploaded keep2share

Uploaded net porn 2517

HQ Sex Movies Download 1132 ryushare uploaded keep2share

HQ Sex Movies Download 1132

Teen Sex Movies Young Porn Tube Vids 224457 ryushare uploaded keep2share

Teen Sex Movies Young Porn Tube Vids 224457

Hardcore sex videos in the high definition quality 4955 ryushare uploaded keep2share

Hardcore sex videos in the high definition quality 4955

Young xxx 225249 ryushare uploaded keep2share

Young xxx 225249

Fucking with young athlete ryushare uploaded keep2share

Fucking with young athlete

sex bf movies hd com 226379 ryushare uploaded keep2share

sex bf movies hd com 226379

Good Teen Tube Sexy Young Naked Girls Movies 225833 ryushare uploaded keep2share

Good Teen Tube Sexy Young Naked Girls Movies 225833

Teen Sex Videos Tube Movies 225843 ryushare uploaded keep2share

Teen Sex Videos Tube Movies 225843

Dusya – Crazy Adult Massage ryushare uploaded keep2share

Dusya – Crazy Adult Massage

Report broken links / Post a comment

You must be logged in to post a comment.



General\r\nComplete name : D:hd teens porn download free onlinemassage girl 18 1407274.mp4\r\nFormat : MPEG-4\r\nFormat profile : Base Media / Version 2\r\nCodec ID : mp42\r\nFile size : 1.92 GiB\r\nDuration : 27mn 14s\r\nOverall bit rate : 10.1 Mbps\r\nEncoded date : UTC 2013-06-07 20:11:29\r\nTagged date : UTC 2013-06-07 20:11:29\r\n\r\nVideo\r\nID : 2\r\nFormat : AVC\r\nFormat/Info : Advanced Video Codec\r\nFormat profile : [email protected]\r\nFormat settings, CABAC : Yes\r\nFormat settings, ReFrames : 2 frames\r\nFormat settings, GOP : M=2, N=15\r\nCodec ID : avc1\r\nCodec ID/Info : Advanced Video Coding\r\nDuration : 27mn 14s\r\nBit rate : 9 902 Kbps\r\nWidth : 1 920 pixels\r\nHeight : 1 080 pixels\r\nDisplay aspect ratio : 16:9\r\nFrame rate mode : Constant\r\nFrame rate : 29.970 fps\r\nStandard : NTSC\r\nColor space : YUV\r\nChroma subsampling : 4:2:0\r\nBit depth : 8 bits\r\nScan type : Progressive\r\nBits/(Pixel*Frame) : 0.159\r\nStream size : 1.88 GiB (98%)\r\nLanguage : English\r\nEncoded date : UTC 2013-06-07 20:11:29\r\nTagged date : UTC 2013-06-07 20:11:29\r\n\r\nAudio\r\nID : 1\r\nFormat : AAC\r\nFormat/Info : Advanced Audio Codec\r\nFormat profile : LC\r\nCodec ID : 40\r\nDuration : 27mn 14s\r\nBit rate mode : Constant\r\nBit rate : 192 Kbps\r\nChannel(s) : channel0\r\nChannel(s)_Original : 2 channels\r\nChannel positions : Front: L R\r\nSampling rate : 48.0 KHz\r\nCompression mode : Lossy\r\nStream size : 37.4 MiB (2%)\r\nLanguage : English\r\nEncoded date : UTC 2013-06-07 20:11:29\r\nTagged date : UTC 2013-06-07 20:11:29\r\n\r\n