Malena Morgan – I Don’t Sing In The Shower

Kennedy Leigh & Thomas - Date NightTeen porn movies 4620

Posted in HD Porn, Sex Movies, Solo | 10952 Views |


Rate this girl !!!




[Twistys.com] Malena Morgan – I Do not Sing In The Shower [2014, Solo, Erotic, Masturbation, Dildo, Close Ups, Breasts, Shaved, 720p]\r\n\r\npic\r\n\r\nMalena Morgan – I Do not Sing In The ShowerTwistys.com 2014 g.Solo, Erotic, Masturbation, Dildo, Close Ups, Breasts, Shaved\r\n\r\npic\r\n\r\npic



DOWNLOAD

Keep2share.cc - Uploaded.net - Openload.co - Rapidu.net


http://ul.to/eejaz470/M.M.D0nt.S1ng.Sh0wer.rar
http://fileom.com/68twlshrkwla/M.M.D0nt.S1ng.Sh0wer.mp4.html
http://k2s.cc/file/477d1cd3325a8/M.M.D0nt.S1ng.Sh0wer.mp4


Premium here:
uploaded.net
keep2share.cc
rapidu.net.cc


Teens related to Malena Morgan – I Don’t Sing In The Shower


HD Porn Teen Sex Videos 225413 ryushare uploaded keep2share

HD Porn Teen Sex Videos 225413

Teen porn xxx 224082 ryushare uploaded keep2share

Teen porn xxx 224082

Sweet Teen Porn – sex in the kitchen ryushare uploaded keep2share

Sweet Teen Porn – sex in the kitchen

EuroSexParties Tiana And Beata Undine Time For Playing ryushare uploaded keep2share

EuroSexParties Tiana And Beata Undine Time For Playing

Beautifull Blonde Models – Ponstars  Orgy Threesome ryushare uploaded keep2share

Beautifull Blonde Models – Ponstars Orgy Threesome

Amateur Teen Sex 4995 ryushare uploaded keep2share

Amateur Teen Sex 4995

Alyona, Klara & Paloma – Strap-on Adventure ryushare uploaded keep2share

Alyona, Klara & Paloma – Strap-on Adventure

Nubiles – sexual intercourse ryushare uploaded keep2share

Nubiles – sexual intercourse

Amateur Teen Sex 2320 ryushare uploaded keep2share

Amateur Teen Sex 2320

HD Porn Videos 4077 ryushare uploaded keep2share

HD Porn Videos 4077

Private – Share The Cock And Keep Cum ryushare uploaded keep2share

Private – Share The Cock And Keep Cum

High Definition Movies on HD Teen Porn XXX Tube 1687 ryushare uploaded keep2share

High Definition Movies on HD Teen Porn XXX Tube 1687

HD Sex World Videos High Definition Free Porn 1501 ryushare uploaded keep2share

HD Sex World Videos High Definition Free Porn 1501

Sweet Teen Porn – Young Porn Videos 3641 ryushare uploaded keep2share

Sweet Teen Porn – Young Porn Videos 3641

HD Sex World Videos High Definition Free Porn 225951 ryushare uploaded keep2share

HD Sex World Videos High Definition Free Porn 225951

hd 1080p xxx video pornstar 226170 ryushare uploaded keep2share

hd 1080p xxx video pornstar 226170

xvideo hd movies free download 226781 ryushare uploaded keep2share

xvideo hd movies free download 226781

Porno movies young teens lesbian 5245 ryushare uploaded keep2share

Porno movies young teens lesbian 5245

descargar cindy_96 226727 ryushare uploaded keep2share

descargar cindy_96 226727

Young Virgin Pussy Teen Fuck Tube 1473 ryushare uploaded keep2share

Young Virgin Pussy Teen Fuck Tube 1473

www18sexivideo com ryushare uploaded keep2share

www18sexivideo com

Teen Porn XXX Tube 225059 ryushare uploaded keep2share

Teen Porn XXX Tube 225059

High Definition Movies on HD 4040 ryushare uploaded keep2share

High Definition Movies on HD 4040

teen tease hdv ryushare uploaded keep2share

teen tease hdv

[PublicAgent.com] Caroline Ardolino – Milf gets fucked hard for cash ryushare uploaded keep2share

[PublicAgent.com] Caroline Ardolino – Milf gets fucked hard for cash

HD sex movies downloads 3688 ryushare uploaded keep2share

HD sex movies downloads 3688

hd video 1080hd pron downlod direct ryushare uploaded keep2share

hd video 1080hd pron downlod direct

HD Teen Sex Tube 224893 ryushare uploaded keep2share

HD Teen Sex Tube 224893

AbbyWinters.com – Carmina & Pablo ryushare uploaded keep2share

AbbyWinters.com – Carmina & Pablo

Teen porn movies 2125 ryushare uploaded keep2share

Teen porn movies 2125

Free Teen Porn Videos at Teen Sex Tube XXX 224751 ryushare uploaded keep2share

Free Teen Porn Videos at Teen Sex Tube XXX 224751

HD Porn Videos 2800 ryushare uploaded keep2share

HD Porn Videos 2800

sex xxxfantasy hd download 226694 ryushare uploaded keep2share

sex xxxfantasy hd download 226694

Teen Tits Tube, Young Girls Porn Videos 224090 ryushare uploaded keep2share

Teen Tits Tube, Young Girls Porn Videos 224090

Casting Vikki 1080p ryushare uploaded keep2share

Casting Vikki 1080p

Report broken links / Post a comment

You must be logged in to post a comment.



General\r\nComplete name : D:hd porn download pics movies clips teens free watch view tube Malena Morgan - I Don't Sing In The Shower.mp4\r\nFormat : MPEG-4\r\nFormat profile : Base Media\r\nCodec ID : isom\r\nFile size : 658 MiB\r\nDuration : 8mn 45s\r\nOverall bit rate : 10.5 Mbps\r\nWriting application : Lavf55.3.100\r\n\r\nVideo\r\nID : 1\r\nFormat : AVC\r\nFormat/Info : Advanced Video Codec\r\nFormat profile : [email protected]\r\nFormat settings, CABAC : Yes\r\nFormat settings, ReFrames : 5 frames\r\nCodec ID : avc1\r\nCodec ID/Info : Advanced Video Coding\r\nDuration : 8mn 45s\r\nBit rate : 10 000 Kbps\r\nWidth : 1 280 pixels\r\nHeight : 720 pixels\r\nDisplay aspect ratio : 16:9\r\nFrame rate mode : Constant\r\nFrame rate : 29.970 fps\r\nColor space : YUV\r\nChroma subsampling : 4:2:0\r\nBit depth : 8 bits\r\nScan type : Progressive\r\nBits/(Pixel*Frame) : 0.362\r\nStream size : 623 MiB (95%)\r\nWriting library : x264 core 132 r2309 3b1f1f7\r\nEncoding settings : cabac=1 / ref=5 / deblock=1:0:0 / analyse=0x3:0x113 / me=umh / subme=8 / psy=1 / psy_rd=1.00:0.00 / mixed_ref=1 / me_range=16 / chroma_me=1 / trellis=1 / 8x8dct=1 / cqm=0 / deadzone=21,11 / fast_pskip=1 / chroma_qp_offset=-2 / threads=24 / lookahead_threads=4 / sliced_threads=0 / nr=0 / decimate=1 / interlaced=0 / bluray_compat=0 / constrained_intra=0 / bframes=3 / b_pyramid=2 / b_adapt=2 / b_bias=0 / direct=3 / weightb=1 / open_gop=0 / weightp=2 / keyint=60 / keyint_min=6 / scenecut=40 / intra_refresh=0 / rc_lookahead=50 / rc=abr / mbtree=1 / bitrate=10000 / ratetol=1.0 / qcomp=0.60 / qpmin=0 / qpmax=69 / qpstep=4 / ip_ratio=1.40 / aq=1:1.00\r\nTagged date : UTC 2014-03-28 12:06:09\r\n\r\nAudio\r\nID : 2\r\nFormat : AAC\r\nFormat/Info : Advanced Audio Codec\r\nFormat profile : LC\r\nCodec ID : 40\r\nDuration : 8mn 45s\r\nDuration_LastFrame : -9ms\r\nBit rate mode : Constant\r\nBit rate : 128 Kbps\r\nChannel(s) : 2 channels\r\nChannel positions : Front: L R\r\nSampling rate : 48.0 KHz\r\nCompression mode : Lossy\r\nStream size : 8.02 MiB (1%)\r\nTagged date : UTC 2014-03-28 12:06:09\r\n\r\nOther #1\r\nID : 65536\r\nType : Hint\r\nFormat : RTP\r\nCodec ID : rtp \r\nDuration : 8mn 45s\r\nEncoded date : UTC 2014-03-28 12:06:07\r\nTagged date : UTC 2014-03-28 12:06:09\r\n\r\nOther #2\r\nID : 65537\r\nType : Hint\r\nFormat : RTP\r\nCodec ID : rtp \r\nDuration : 8mn 45s\r\nEncoded date : UTC 2014-03-28 12:06:09\r\nTagged date : UTC 2014-03-28 12:06:09\r\nBit rate mode : VBR\r\n\r\n