Linda S – Making Up For Lost Time

Maria Pie And Nomi – Melting Like ButterSummer Breeze and Victoria Tiffani

Posted in HD Porn, Pornstar, Sex Movies, Teen | 21335 Views |


Rate this girl !!!




[WowGirls.com] Linda S – Making Up For Lost Time

\r\n

cover

\r\n

1920x1080p / MP4 / 481.02 MB

\r\n \r\n

SCREENSHOTS:

\r\n

screens

\r\n



DOWNLOAD

Keep2share.cc - Uploaded.net - Openload.co - Rapidu.net


http://fileom.com/d18mckshqu0b/Ma.ki.ng_Up_For_L.o.st_Ti.me_H.D10.80.mp4.html
http://k2s.cc/file/b52973f6a0b0a/Ma.ki.ng_Up_For_L.o.st_Ti.me_H.D10.80.mp4
http://ul.to/u2wl1mjw/Ma.ki.ng_Up_For_L.o.st_Ti.me_H.D10.80.mp4


Premium here:
uploaded.net
keep2share.cc
rapidu.net.cc

Teens related to Linda S – Making Up For Lost Time


Teen Sex Movies 2122 ryushare uploaded keep2share

Teen Sex Movies 2122

xxx skymovi com ryushare uploaded keep2share

xxx skymovi com

Teen Sex Videos Tube Movies 225164 ryushare uploaded keep2share

Teen Sex Videos Tube Movies 225164

Watch Teen Sex Videos HD 4949 ryushare uploaded keep2share

Watch Teen Sex Videos HD 4949

HDMassagePorn – Gianna – Sporty Blonde In Hot HD Porn ryushare uploaded keep2share

HDMassagePorn – Gianna – Sporty Blonde In Hot HD Porn

Teen Sex Videos Tube Movies 225805 ryushare uploaded keep2share

Teen Sex Videos Tube Movies 225805

Young Sex Movies 4459 ryushare uploaded keep2share

Young Sex Movies 4459

Couple of angels ryushare uploaded keep2share

Couple of angels

Wow Girls Porn Clips download 225381 ryushare uploaded keep2share

Wow Girls Porn Clips download 225381

Hardcore Sex Hub 224876 ryushare uploaded keep2share

Hardcore Sex Hub 224876

Sweet Teen Porn – Teena Dolly ryushare uploaded keep2share

Sweet Teen Porn – Teena Dolly

Xxxvideosdownload less mb ryushare uploaded keep2share

Xxxvideosdownload less mb

KARLIE MONTANA’s Fetish Fantasies ryushare uploaded keep2share

KARLIE MONTANA’s Fetish Fantasies

Teen porn movies 224809 ryushare uploaded keep2share

Teen porn movies 224809

X-Angels.com Olivia ryushare uploaded keep2share

X-Angels.com Olivia

Janna – Real Homemade Sex Tape ryushare uploaded keep2share

Janna – Real Homemade Sex Tape

Tube xxx 5228 ryushare uploaded keep2share

Tube xxx 5228

High Definition Movies on HD 224690 ryushare uploaded keep2share

High Definition Movies on HD 224690

Nude Teens fucking hard 2774 ryushare uploaded keep2share

Nude Teens fucking hard 2774

www scool xxx com 226417 ryushare uploaded keep2share

www scool xxx com 226417

Taissia – Take it slow ryushare uploaded keep2share

Taissia – Take it slow

The best Teen sex 5166 ryushare uploaded keep2share

The best Teen sex 5166

Castingcouch-X.com Megan Rain ryushare uploaded keep2share

Castingcouch-X.com Megan Rain

NubileFilms.com Kacy Lane – Sexual Tension ryushare uploaded keep2share

NubileFilms.com Kacy Lane – Sexual Tension

High Definition Movies on HD 5169 ryushare uploaded keep2share

High Definition Movies on HD 5169

Model porno sex 4345 ryushare uploaded keep2share

Model porno sex 4345

full hd 1020 ponr 226530 ryushare uploaded keep2share

full hd 1020 ponr 226530

wow xxxvideoshd ryushare uploaded keep2share

wow xxxvideoshd

xxx clips 2014 com ryushare uploaded keep2share

xxx clips 2014 com

HQ Sex Movies Download 225936 ryushare uploaded keep2share

HQ Sex Movies Download 225936

Hot Teen Sex HD videos 4232 ryushare uploaded keep2share

Hot Teen Sex HD videos 4232

Teen 18 Porn XXX Clips Naked 2084 ryushare uploaded keep2share

Teen 18 Porn XXX Clips Naked 2084

Teen Porn XXX Tube 1280 ryushare uploaded keep2share

Teen Porn XXX Tube 1280

Porn teen hd downloads 224721 ryushare uploaded keep2share

Porn teen hd downloads 224721

HD Sex World Videos High Definition Free Porn 224514 ryushare uploaded keep2share

HD Sex World Videos High Definition Free Porn 224514

Report broken links / Post a comment

You must be logged in to post a comment.



General\r\nComplete name : D:[WowGirls.com] Linda S – Making Up For Lost Time .mp4\r\nFormat : MPEG-4\r\nFormat profile : Base Media\r\nCodec ID : isom\r\nFile size : 481 MiB\r\nDuration : 15mn 14s\r\nOverall bit rate mode : Variable\r\nOverall bit rate : 4 410 Kbps\r\nWriting application : Lavf55.33.100\r\n\r\nVideo\r\nID : 1\r\nFormat : AVC\r\nFormat/Info : Advanced Video Codec\r\nFormat profile : [email protected]\r\nFormat settings, CABAC : Yes\r\nFormat settings, ReFrames : 5 frames\r\nCodec ID : avc1\r\nCodec ID/Info : Advanced Video Coding\r\nDuration : 15mn 14s\r\nBit rate : 4 295 Kbps\r\nWidth : 1 920 pixels\r\nHeight : 1 080 pixels\r\nDisplay aspect ratio : 16:9\r\nFrame rate mode : Constant\r\nFrame rate : 29.970 fps\r\nColor space : YUV\r\nChroma subsampling : 4:2:0\r\nBit depth : 8 bits\r\nScan type : Progressive\r\nBits/(Pixel*Frame) : 0.069\r\nStream size : 468 MiB (97%)\r\nWriting library : x264 core 138\r\nEncoding settings : cabac=1 / ref=5 / deblock=1:-1:-1 / analyse=0x3:0x113 / me=umh / subme=8 / psy=1 / psy_rd=1.00:0.15 / mixed_ref=1 / me_range=16 / chroma_me=1 / trellis=1 / 8x8dct=1 / cqm=0 / deadzone=21,11 / fast_pskip=1 / chroma_qp_offset=-3 / threads=8 / lookahead_threads=1 / sliced_threads=0 / nr=0 / decimate=1 / interlaced=0 / bluray_compat=0 / constrained_intra=0 / bframes=3 / b_pyramid=2 / b_adapt=2 / b_bias=0 / direct=3 / weightb=1 / open_gop=0 / weightp=2 / keyint=250 / keyint_min=25 / scenecut=40 / intra_refresh=0 / rc_lookahead=50 / rc=crf / mbtree=1 / crf=20.0 / qcomp=0.60 / qpmin=0 / qpmax=69 / qpstep=4 / ip_ratio=1.40 / aq=1:1.00\r\nLanguage : Russian\r\n\r\nAudio\r\nID : 2\r\nFormat : AAC\r\nFormat/Info : Advanced Audio Codec\r\nFormat profile : LC\r\nCodec ID : 40\r\nDuration : 15mn 14s\r\nBit rate mode : Variable\r\nBit rate : 106 Kbps\r\nMaximum bit rate : 192 Kbps\r\nChannel(s) : 2 channels\r\nChannel positions : Front: L R\r\nSampling rate : 44.1 KHz\r\nCompression mode : Lossy\r\nStream size : 11.5 MiB (2%)\r\nLanguage : Russian\r\n\r\n