Kavol Lilien

Kiara Lord – Rock my worldFoxy Di – I’m all yours

Posted in HD Porn, Pornstar, Teen | 4179 Views |


Rate this girl !!!




[ATKGalleria.com] Kavol Lilien

\r\n

cover

\r\n

1920x1080p / MP4 / 794.2 MB

\r\n \r\n

SCREENSHOTS:

\r\n

screens



DOWNLOAD

Keep2share.cc - Uploaded.net - Openload.co - Rapidu.net


http://fileom.com/eoqhfwhnfzyf/ka.v00.1LIL_303160001_hd.mp4.html
http://k2s.cc/file/fe0d001bea095/ka.v00.1LIL_303160001_hd.mp4
http://ul.to/mw2zsjyp/ka.v00.1LIL_303160001_hd.mp4


Premium here:
uploaded.net
keep2share.cc
rapidu.net.cc


Teens related to Kavol Lilien


Teen Sex Movies 5445 ryushare uploaded keep2share

Teen Sex Movies 5445

Teens in Porno young porn videos and free teen sex 5409 ryushare uploaded keep2share

Teens in Porno young porn videos and free teen sex 5409

Alica – Quiet but deadly ryushare uploaded keep2share

Alica – Quiet but deadly

Hot Teen Sex 224220 ryushare uploaded keep2share

Hot Teen Sex 224220

Wow porn tube movies 225566 ryushare uploaded keep2share

Wow porn tube movies 225566

Watch Teen Sex Videos HD 2098 ryushare uploaded keep2share

Watch Teen Sex Videos HD 2098

K Three Teasing Tongues 3 ryushare uploaded keep2share

K Three Teasing Tongues 3

xvideohqdownlod 226407 ryushare uploaded keep2share

xvideohqdownlod 226407

HQ Sex Movies Download 4353 ryushare uploaded keep2share

HQ Sex Movies Download 4353

First time Sexual Films 18 sex xxx 4745 ryushare uploaded keep2share

First time Sexual Films 18 sex xxx 4745

HD Teen Sex Tube 224636 ryushare uploaded keep2share

HD Teen Sex Tube 224636

Free Young Porn Videos XXX Teen Porn 1836 ryushare uploaded keep2share

Free Young Porn Videos XXX Teen Porn 1836

HD Sex World Videos High Definition Free Porn 1554 ryushare uploaded keep2share

HD Sex World Videos High Definition Free Porn 1554

Free Porn Videos Xxx Movies Pussy Porn 5225 ryushare uploaded keep2share

Free Porn Videos Xxx Movies Pussy Porn 5225

Adult Hardcore XXX Sex Videos 4965 ryushare uploaded keep2share

Adult Hardcore XXX Sex Videos 4965

High Definition Movies on HD 4341 ryushare uploaded keep2share

High Definition Movies on HD 4341

hd sexy porn star video ryushare uploaded keep2share

hd sexy porn star video

xxx clips 2014 com ryushare uploaded keep2share

xxx clips 2014 com

Big tits Big Ass Sex with model ryushare uploaded keep2share

Big tits Big Ass Sex with model

High Definition Movies on HD Teen Porn XXX Tube 1687 ryushare uploaded keep2share

High Definition Movies on HD Teen Porn XXX Tube 1687

www free hd virgin porn download com ryushare uploaded keep2share

www free hd virgin porn download com

Movies Young legal porn 225867 ryushare uploaded keep2share

Movies Young legal porn 225867

Teen Sex Videos Tube Movies 225843 ryushare uploaded keep2share

Teen Sex Videos Tube Movies 225843

Teen porn movies 1460 ryushare uploaded keep2share

Teen porn movies 1460

Young teens tube hot girls free porn video 1947 ryushare uploaded keep2share

Young teens tube hot girls free porn video 1947

Girls do porn downloads 3828 ryushare uploaded keep2share

Girls do porn downloads 3828

[RylskyArt.com] Liania – Mitsiia ryushare uploaded keep2share

[RylskyArt.com] Liania – Mitsiia

Free Teen Porn Videos at Teen Sex Tube XXX 224787 ryushare uploaded keep2share

Free Teen Porn Videos at Teen Sex Tube XXX 224787

Pretty skinny girl in casting video ryushare uploaded keep2share

Pretty skinny girl in casting video

Teen Porn XXX Tube 4159 ryushare uploaded keep2share

Teen Porn XXX Tube 4159

Free Porn Videos Xxx Movies Pussy Porn 1302 ryushare uploaded keep2share

Free Porn Videos Xxx Movies Pussy Porn 1302

Teen Sex Movies Young Porn Tube Vids 4094 ryushare uploaded keep2share

Teen Sex Movies Young Porn Tube Vids 4094

Hot Teen Sex 2747 ryushare uploaded keep2share

Hot Teen Sex 2747

I Like Old Dick In My Teeny Ass – Ivana Sugar ryushare uploaded keep2share

I Like Old Dick In My Teeny Ass – Ivana Sugar

Nice porn teen video mp4 quality ryushare uploaded keep2share

Nice porn teen video mp4 quality

Report broken links / Post a comment

You must be logged in to post a comment.



General\r\nComplete name : D:[ATKGalleria.com] Kavol Lilien.avi\r\nFormat : MPEG-4\r\nFormat profile : Base Media / Version 2\r\nCodec ID : mp42\r\nFile size : 794 MiB\r\nDuration : 18mn 6s\r\nOverall bit rate mode : Variable\r\nOverall bit rate : 6 131 Kbps\r\nEncoded date : UTC 2014-08-01 19:32:09\r\nTagged date : UTC 2014-08-02 03:17:16\r\nWriting application : Sorenson Squeeze\r\nComment : Encoded by atkingdom.com\r\n\r\nVideo\r\nID : 2\r\nFormat : AVC\r\nFormat/Info : Advanced Video Codec\r\nFormat profile : [email protected]\r\nFormat settings, CABAC : Yes\r\nFormat settings, ReFrames : 3 frames\r\nCodec ID : avc1\r\nCodec ID/Info : Advanced Video Coding\r\nDuration : 18mn 6s\r\nBit rate mode : Variable\r\nBit rate : 5 997 Kbps\r\nMaximum bit rate : 60.0 Mbps\r\nWidth : 1 920 pixels\r\nHeight : 1 080 pixels\r\nDisplay aspect ratio : 16:9\r\nFrame rate mode : Variable\r\nFrame rate : 29.970 fps\r\nMinimum frame rate : 29.970 fps\r\nMaximum frame rate : 30.000 fps\r\nStandard : NTSC\r\nColor space : YUV\r\nChroma subsampling : 4:2:0\r\nBit depth : 8 bits\r\nScan type : Progressive\r\nBits/(Pixel*Frame) : 0.096\r\nStream size : 777 MiB (98%)\r\nEncoded date : UTC 2014-08-01 19:32:09\r\nTagged date : UTC 2014-08-01 19:32:09\r\nColor primaries : BT.709\r\nTransfer characteristics : BT.709\r\nMatrix coefficients : BT.709\r\n\r\nAudio\r\nID : 1\r\nFormat : AAC\r\nFormat/Info : Advanced Audio Codec\r\nFormat profile : LC\r\nCodec ID : 40\r\nDuration : 18mn 6s\r\nBit rate mode : Constant\r\nBit rate : 128 Kbps\r\nChannel(s) : 2 channels\r\nChannel positions : Front: L R\r\nSampling rate : 48.0 KHz\r\nCompression mode : Lossy\r\nStream size : 16.6 MiB (2%)\r\nEncoded date : UTC 2014-08-01 19:32:09\r\nTagged date : UTC 2014-08-01 19:32:09\r\n\r\nOther #1\r\nID : 3\r\nType : Scene description\r\nFormat : System Core\r\nCodec ID : 2\r\nDuration : 18mn 6s\r\nEncoded date : UTC 2014-08-01 20:16:04\r\nTagged date : UTC 2014-08-01 20:16:04\r\n\r\nOther #2\r\nID : 4\r\nType : Object description\r\nFormat : System\r\nCodec ID : 1\r\nDuration : 18mn 6s\r\nEncoded date : UTC 2014-08-01 20:16:04\r\nTagged date : UTC 2014-08-01 20:16:04\r\n\r\n