Katya – Creampie-Angels

Norma – Welcome to fuck her for cashJanna – Real Homemade Sex Tape

Posted in Amateur, HD Porn, Sex Movies, Teen | 22605 Views |


Rate this girl !!!




cover

\r\n

1920x1080p / MP4 / 1.14 GB

\r\n\r\n

[Creampie-Angels.com] Katya

\r\n \r\n

SCREENSHOTS:

\r\n

screens



DOWNLOAD

Keep2share.cc - Uploaded.net - Openload.co - Rapidu.net



http://k2s.cc/file/16575bca7fa00/K4ty4.C4.mp4

http://ul.to/a0no2jcx/K4ty4.C4.mp4


Premium here:
uploaded.net
keep2share.cc
rapidu.net.cc


Teens related to Katya – Creampie-Angels


18 years girl xxx sex videos) 2758 ryushare uploaded keep2share

18 years girl xxx sex videos) 2758

Silvie Deluxe – Just A Minute ryushare uploaded keep2share

Silvie Deluxe – Just A Minute

sekxi hd video porn ryushare uploaded keep2share

sekxi hd video porn

Teen Porn XXX Tube 1957 ryushare uploaded keep2share

Teen Porn XXX Tube 1957

descargar cindy_96 226727 ryushare uploaded keep2share

descargar cindy_96 226727

HD Porn Videos 1486 ryushare uploaded keep2share

HD Porn Videos 1486

Sweet Teen Porn – Teena Dolly ryushare uploaded keep2share

Sweet Teen Porn – Teena Dolly

girls high quality sex videos download 226282 ryushare uploaded keep2share

girls high quality sex videos download 226282

Good Teen Tube Sexy Young Naked Girls Movies 224941 ryushare uploaded keep2share

Good Teen Tube Sexy Young Naked Girls Movies 224941

Hot Teen Sex HD videos 1748 ryushare uploaded keep2share

Hot Teen Sex HD videos 1748

Teenies Videos – Teen Porn, Teen Sex, XXX Free Videos 1601 ryushare uploaded keep2share

Teenies Videos – Teen Porn, Teen Sex, XXX Free Videos 1601

Teens in Porno young porn videos and free teen sex 5650 ryushare uploaded keep2share

Teens in Porno young porn videos and free teen sex 5650

butt xxx hd move 226474 ryushare uploaded keep2share

butt xxx hd move 226474

Alexis Brill – WUNF 101 ryushare uploaded keep2share

Alexis Brill – WUNF 101

xxx hd com yang ryushare uploaded keep2share

xxx hd com yang

mania teennporn 226597 ryushare uploaded keep2share

mania teennporn 226597

Beata Fucking in swimming pool ryushare uploaded keep2share

Beata Fucking in swimming pool

Teens 1080p hd porn 3561 ryushare uploaded keep2share

Teens 1080p hd porn 3561

www 18years sex videos hd ryushare uploaded keep2share

www 18years sex videos hd

Teen Sex Videos Tube Movies 224560 ryushare uploaded keep2share

Teen Sex Videos Tube Movies 224560

Hot Teen Sex 5187 ryushare uploaded keep2share

Hot Teen Sex 5187

kylee wow girls porn tubes ryushare uploaded keep2share

kylee wow girls porn tubes

Teen Sex Porn Videos Free Nude Teens 3806 ryushare uploaded keep2share

Teen Sex Porn Videos Free Nude Teens 3806

girls fucking sexy video Higley compressed ryushare uploaded keep2share

girls fucking sexy video Higley compressed

Girls sex art hd teens videos 5470 ryushare uploaded keep2share

Girls sex art hd teens videos 5470

Hardcore sex videos in the high definition quality 2214 ryushare uploaded keep2share

Hardcore sex videos in the high definition quality 2214

HD sex movies downloads 2947 ryushare uploaded keep2share

HD sex movies downloads 2947

www xxx com vadio ryushare uploaded keep2share

www xxx com vadio

Wow porn hd downloads 224035 ryushare uploaded keep2share

Wow porn hd downloads 224035

TrickyMasseur.com Joanna ryushare uploaded keep2share

TrickyMasseur.com Joanna

Ariana Marie – Babysitter ryushare uploaded keep2share

Ariana Marie – Babysitter

Natali – PublicAgent ryushare uploaded keep2share

Natali – PublicAgent

Free High Quality Sex Movies 3862 ryushare uploaded keep2share

Free High Quality Sex Movies 3862

Hot Teen Sex HD videos 1930 ryushare uploaded keep2share

Hot Teen Sex HD videos 1930

Report broken links / Post a comment

You must be logged in to post a comment.



General\r\nComplete name : D:[Creampie-Angels.com] Katya.C4.mp4\r\nFormat : MPEG-4\r\nFormat profile : Base Media\r\nCodec ID : isom\r\nFile size : 1.14 GiB\r\nDuration : 20mn 9s\r\nOverall bit rate : 8 127 Kbps\r\nMovie name : RARBG.COM - Creampie-Angels.14.09.08.Katya.XXX.1080p.MP4-KTR\r\nPerformer : Royal-Cash.com\r\nComposer : Royal-Cash.com\r\nWriting application : Lavf55.48.100\r\nCopyright : Royal-Cash.com\r\nComment : RARBG.COM - Creampie-Angels.14.09.08.Katya.XXX.1080p.MP4-KTR\r\n\r\nVideo\r\nID : 1\r\nFormat : AVC\r\nFormat/Info : Advanced Video Codec\r\nFormat profile : [email protected]\r\nFormat settings, CABAC : Yes\r\nFormat settings, ReFrames : 3 frames\r\nFormat settings, GOP : M=1, N=100\r\nCodec ID : avc1\r\nCodec ID/Info : Advanced Video Coding\r\nDuration : 20mn 9s\r\nBit rate : 8 000 Kbps\r\nWidth : 1 920 pixels\r\nHeight : 1 080 pixels\r\nDisplay aspect ratio : 16:9\r\nFrame rate mode : Constant\r\nFrame rate : 25.000 fps\r\nColor space : YUV\r\nChroma subsampling : 4:2:0\r\nBit depth : 8 bits\r\nScan type : Progressive\r\nBits/(Pixel*Frame) : 0.154\r\nStream size : 1.13 GiB (98%)\r\nWriting library : x264 core 1191.0\r\nEncoding settings : cabac=1 / ref=3 / deblock=1:0:0 / analyse=0x3:0x113 / me=hex / subme=7 / psy=1 / psy_rd=1.00:0.00 / mixed_ref=1 / me_range=16 / chroma_me=1 / trellis=1 / 8x8dct=1 / cqm=0 / deadzone=21,11 / fast_pskip=1 / chroma_qp_offset=-2 / threads=24 / sliced_threads=0 / nr=0 / decimate=1 / interlaced=0 / bluray_compat=0 / constrained_intra=0 / bframes=0 / weightp=2 / keyint=100 / keyint_min=10 / scenecut=40 / intra_refresh=0 / rc_lookahead=40 / rc=abr / mbtree=1 / bitrate=8000 / ratetol=1.0 / qcomp=0.60 / qpmin=0 / qpmax=69 / qpstep=4 / ip_ratio=1.40 / aq=1:1.00\r\n\r\nAudio\r\nID : 2\r\nFormat : AAC\r\nFormat/Info : Advanced Audio Codec\r\nFormat profile : LC\r\nCodec ID : 40\r\nDuration : 20mn 9s\r\nBit rate mode : Constant\r\nBit rate : 117 Kbps\r\nChannel(s) : 2 channels\r\nChannel positions : Front: L R\r\nSampling rate : 44.1 KHz\r\nCompression mode : Lossy\r\nStream size : 16.9 MiB (1%)\r\n\r\n