Katy Rose & Lutro – Lubricous

Rosaline Rosa & Vanda Lust – On The SlyJenny Simons – At The Right Time

Posted in HD Porn, Pornstar, Sex Movies, Teen | 7966 Views |


Rate this girl !!!




cover\r\n\r\n1920x1080p / MP4 / 1.21 GB\r\n

[Sex-Art.com] Katy Rose & Lutro – Lubricous

\r\nSCREENSHOTS:\r\n\r\nscreens



DOWNLOAD

Keep2share.cc - Uploaded.net - Openload.co - Rapidu.net


http://k2s.cc/file/2f8638f3fc8e5/s4.14.06.22.k4ty.ros3.lubr1cous.mp4

http://ul.to/vze398ia/s4.14.06.22.k4ty.ros3.lubr1cous.mp4


Premium here:
uploaded.net
keep2share.cc
rapidu.net.cc


Teens related to Katy Rose & Lutro – Lubricous


Dusya – Crazy Adult Massage ryushare uploaded keep2share

Dusya – Crazy Adult Massage

Free Teen Porn Videos at Teen Sex Tube XXX 225611 ryushare uploaded keep2share

Free Teen Porn Videos at Teen Sex Tube XXX 225611

Sex Teens porn movies 3971 ryushare uploaded keep2share

Sex Teens porn movies 3971

High Definition Movies on HD 225408 ryushare uploaded keep2share

High Definition Movies on HD 225408

Teen porn movies 223816 ryushare uploaded keep2share

Teen porn movies 223816

Watch Teen Sex Videos HD 1226 ryushare uploaded keep2share

Watch Teen Sex Videos HD 1226

Watch Teen Sex Videos HD 2205 ryushare uploaded keep2share

Watch Teen Sex Videos HD 2205

pc full hd video xxx download ryushare uploaded keep2share

pc full hd video xxx download

Nude Teens fucking hard 223931 ryushare uploaded keep2share

Nude Teens fucking hard 223931

HQ Sex Movies Download 4226 ryushare uploaded keep2share

HQ Sex Movies Download 4226

Teen Sex Movies 4310 ryushare uploaded keep2share

Teen Sex Movies 4310

download movies sexx hd ryushare uploaded keep2share

download movies sexx hd

Pornstar teen fucked in all holes ryushare uploaded keep2share

Pornstar teen fucked in all holes

Teenies Videos – Teen Porn, Teen Sex, XXX Free Videos 224604 ryushare uploaded keep2share

Teenies Videos – Teen Porn, Teen Sex, XXX Free Videos 224604

Eva Karera, Jasmine Gomez, TeachSex ryushare uploaded keep2share

Eva Karera, Jasmine Gomez, TeachSex

The best Teen sex 4297 ryushare uploaded keep2share

The best Teen sex 4297

yes-xxx-teen-sex-movies ryushare uploaded keep2share

yes-xxx-teen-sex-movies

[WowPorn.com] Daphne & Ria Sun (Thorough Fingers / ryushare uploaded keep2share

[WowPorn.com] Daphne & Ria Sun (Thorough Fingers /

Teen porn movies 2556 ryushare uploaded keep2share

Teen porn movies 2556

Free High Quality Sex Movies 3731 ryushare uploaded keep2share

Free High Quality Sex Movies 3731

baby hd mp4 deflortioan sex 226670 ryushare uploaded keep2share

baby hd mp4 deflortioan sex 226670

Adult Hardcore XXX Sex Videos 3795 ryushare uploaded keep2share

Adult Hardcore XXX Sex Videos 3795

A girl with heavenly curves ryushare uploaded keep2share

A girl with heavenly curves

Model porno sex 4099 ryushare uploaded keep2share

Model porno sex 4099

Nude Teens fucking hard 5262 ryushare uploaded keep2share

Nude Teens fucking hard 5262

High Definition Movies on HD 224782 ryushare uploaded keep2share

High Definition Movies on HD 224782

Young 720p hd porn 4917 ryushare uploaded keep2share

Young 720p hd porn 4917

www english hd and hq xxx moves com ryushare uploaded keep2share

www english hd and hq xxx moves com

Teen porn movies 225435 ryushare uploaded keep2share

Teen porn movies 225435

iglish porn sexi 226443 ryushare uploaded keep2share

iglish porn sexi 226443

Blonde fucked in all holes. Gang Bang ryushare uploaded keep2share

Blonde fucked in all holes. Gang Bang

Young Virgin Pussy Teen Fuck Tube 1916 ryushare uploaded keep2share

Young Virgin Pussy Teen Fuck Tube 1916

girlboy xxxwalpaper 226160 ryushare uploaded keep2share

girlboy xxxwalpaper 226160

Klixen Cindy Hope & Cipriana ryushare uploaded keep2share

Klixen Cindy Hope & Cipriana

www21SEXE TURY com ryushare uploaded keep2share

www21SEXE TURY com

Report broken links / Post a comment

You must be logged in to post a comment.



General\r\nComplete name : D:[Sex-Art.com] Katy Rose & Lutro – Lubricous.mp4\r\nFormat : MPEG-4\r\nFormat profile : Base Media\r\nCodec ID : isom\r\nFile size : 1.21 GiB\r\nDuration : 21mn 24s\r\nOverall bit rate : 8 113 Kbps\r\nWriting application : Lavf55.37.102\r\n\r\nVideo\r\nID : 1\r\nFormat : AVC\r\nFormat/Info : Advanced Video Codec\r\nFormat profile : [email protected]\r\nFormat settings, CABAC : Yes\r\nFormat settings, ReFrames : 5 frames\r\nCodec ID : avc1\r\nCodec ID/Info : Advanced Video Coding\r\nDuration : 21mn 24s\r\nBit rate : 8 000 Kbps\r\nWidth : 1 920 pixels\r\nHeight : 1 080 pixels\r\nDisplay aspect ratio : 16:9\r\nFrame rate mode : Constant\r\nFrame rate : 25.000 fps\r\nColor space : YUV\r\nChroma subsampling : 4:2:0\r\nBit depth : 8 bits\r\nScan type : Progressive\r\nBits/(Pixel*Frame) : 0.154\r\nStream size : 1.19 GiB (98%)\r\nWriting library : x264 core 129 r2245 bc13772\r\nEncoding settings : cabac=1 / ref=5 / deblock=1:0:0 / analyse=0x3:0x113 / me=umh / subme=8 / psy=0 / mixed_ref=1 / me_range=16 / chroma_me=1 / trellis=1 / 8x8dct=1 / cqm=0 / deadzone=21,11 / fast_pskip=1 / chroma_qp_offset=0 / threads=36 / lookahead_threads=6 / sliced_threads=0 / nr=0 / decimate=1 / interlaced=0 / bluray_compat=0 / constrained_intra=0 / bframes=3 / b_pyramid=2 / b_adapt=2 / b_bias=0 / direct=3 / weightb=1 / open_gop=0 / weightp=2 / keyint=250 / keyint_min=25 / scenecut=40 / intra_refresh=0 / rc=2pass / mbtree=0 / bitrate=8000 / ratetol=1.0 / qcomp=0.60 / qpmin=10 / qpmax=51 / qpstep=4 / cplxblur=20.0 / qblur=0.5 / ip_ratio=1.40 / pb_ratio=1.30 / aq=1:1.00\r\nLanguage : English\r\n\r\nAudio\r\nID : 2\r\nFormat : AAC\r\nFormat/Info : Advanced Audio Codec\r\nFormat profile : LC\r\nCodec ID : 40\r\nDuration : 21mn 24s\r\nBit rate mode : Constant\r\nBit rate : 117 Kbps\r\nChannel(s) : 2 channels\r\nChannel positions : Front: L R\r\nSampling rate : 44.1 KHz\r\nCompression mode : Lossy\r\nStream size : 18.0 MiB (1%)\r\nLanguage : English\r\n\r\n