Kathia Nobili, Meg Magic – Low Self-Esteem

TeensAnalyzed - Nanette - Taking You Closer To Anal [FullHD 1080p]The Tia Cyrus Tug Job Experience

Posted in HD Porn, Pornstar, Sex Movies, Teen | 8435 Views |


Rate this girl !!!




Kathia Nobili, Meg Magic – Low Self-Esteem\r\n\r\n\r\nGeneral info: Size: 1139 Mb, Duration: 00: 25: 44, Streams: 2, Full bitrate: 6188 kb/s\r\nVideo: H264 (avc1), 1920×1080, 25 fps\r\nAudio: AAC, STEREO, 48 kHz, 189 kb/s\r\n\r\nKathia Nobili  Meg Magic - Low Self-Esteem hd porn teens ryushare uploaded



DOWNLOAD

Keep2share.cc - Uploaded.net - Openload.co - Rapidu.net


http://ryushare.com/98q1muuvp4lm/K4thia.N0bili.mp4
http://turbobit.net/nu30ycwrveoy.html
http://ul.to/nzdc6znl


Premium here:
uploaded.net
keep2share.cc
rapidu.net.cc

Teens related to Kathia Nobili, Meg Magic – Low Self-Esteem


Young Virgin Pussy Teen Fuck Tube 2962 ryushare uploaded keep2share

Young Virgin Pussy Teen Fuck Tube 2962

Teen porn movies 224770 ryushare uploaded keep2share

Teen porn movies 224770

Sandy Sweet & Jessica Valentino ryushare uploaded keep2share

Sandy Sweet & Jessica Valentino

Teens Love huge cooks 1166 ryushare uploaded keep2share

Teens Love huge cooks 1166

xxx bf net 226291 ryushare uploaded keep2share

xxx bf net 226291

Free Teen Porn Videos at Teen Sex Tube XXX 5378 ryushare uploaded keep2share

Free Teen Porn Videos at Teen Sex Tube XXX 5378

download video bf sex full hd hq ryushare uploaded keep2share

download video bf sex full hd hq

Teen Sex Videos Tube Movies 1942 ryushare uploaded keep2share

Teen Sex Videos Tube Movies 1942

Tube Young Sex 5590 ryushare uploaded keep2share

Tube Young Sex 5590

Young XXX Tube Videos 3935 ryushare uploaded keep2share

Young XXX Tube Videos 3935

Beautiful brunette teen fucking from behind Hd ryushare uploaded keep2share

Beautiful brunette teen fucking from behind Hd

audio sex tape in low mb 226389 ryushare uploaded keep2share

audio sex tape in low mb 226389

www boys to boy xxx download videos com 226381 ryushare uploaded keep2share

www boys to boy xxx download videos com 226381

Young Sex Movies 4459 ryushare uploaded keep2share

Young Sex Movies 4459

Porn teen hd downloads 224289 ryushare uploaded keep2share

Porn teen hd downloads 224289

Young teens tube hot girls free porn video 1951 ryushare uploaded keep2share

Young teens tube hot girls free porn video 1951

Hot Teen Sex HD videos 1883 ryushare uploaded keep2share

Hot Teen Sex HD videos 1883

The best Teen sex 2111 ryushare uploaded keep2share

The best Teen sex 2111

Spanish Party Hot Teens HD ryushare uploaded keep2share

Spanish Party Hot Teens HD

teen porn at pinkworld ryushare uploaded keep2share

teen porn at pinkworld

Movies Young legal porn 224470 ryushare uploaded keep2share

Movies Young legal porn 224470

HD Sex World Videos High Definition Free Porn 2998 ryushare uploaded keep2share

HD Sex World Videos High Definition Free Porn 2998

Teen porn xxx 224950 ryushare uploaded keep2share

Teen porn xxx 224950

ful hd porn girls 226184 ryushare uploaded keep2share

ful hd porn girls 226184

porn xxx sex movies mkv free download 226603 ryushare uploaded keep2share

porn xxx sex movies mkv free download 226603

The best Teen sex 4035 ryushare uploaded keep2share

The best Teen sex 4035

Teen porn movies 224217 ryushare uploaded keep2share

Teen porn movies 224217

HD Sex World Videos High Definition Free Porn 224277 ryushare uploaded keep2share

HD Sex World Videos High Definition Free Porn 224277

Hardcore Sex Hub 1355 ryushare uploaded keep2share

Hardcore Sex Hub 1355

Sex videos hd for pc ryushare uploaded keep2share

Sex videos hd for pc

Porn shortest videos free download ryushare uploaded keep2share

Porn shortest videos free download

Alexis Rodriguez – So Much Ass ryushare uploaded keep2share

Alexis Rodriguez – So Much Ass

xxx teen clips 226044 ryushare uploaded keep2share

xxx teen clips 226044

wwwsex beuty hd video 226570 ryushare uploaded keep2share

wwwsex beuty hd video 226570

Tube xxx 225500 ryushare uploaded keep2share

Tube xxx 225500

Report broken links / Post a comment

You must be logged in to post a comment.



General\r\nComplete name : D:JDdescargasbe87e0dc44fileK4thia.N0bili.mp4\r\nFormat : MPEG-4\r\nFormat profile : Base Media / Version 2\r\nCodec ID : mp42\r\nFile size : 1.11 GiB\r\nDuration : 25mn 44s\r\nOverall bit rate mode : Variable\r\nOverall bit rate : 6 188 Kbps\r\nEncoded date : UTC 2013-12-06 20:49:49\r\nTagged date : UTC 2013-12-06 20:49:49\r\n\r\nVideo\r\nID : 1\r\nFormat : AVC\r\nFormat/Info : Advanced Video Codec\r\nFormat profile : [email protected]\r\nFormat settings, CABAC : Yes\r\nFormat settings, ReFrames : 3 frames\r\nCodec ID : avc1\r\nCodec ID/Info : Advanced Video Coding\r\nDuration : 25mn 44s\r\nBit rate mode : Variable\r\nBit rate : 5 995 Kbps\r\nWidth : 1 920 pixels\r\nHeight : 1 080 pixels\r\nDisplay aspect ratio : 16:9\r\nFrame rate mode : Constant\r\nFrame rate : 25.000 fps\r\nStandard : PAL\r\nColor space : YUV\r\nChroma subsampling : 4:2:0\r\nBit depth : 8 bits\r\nScan type : Progressive\r\nBits/(Pixel*Frame) : 0.116\r\nStream size : 1.08 GiB (97%)\r\nLanguage : English\r\nEncoded date : UTC 2013-12-06 20:49:49\r\nTagged date : UTC 2013-12-06 20:49:49\r\nColor primaries : BT.709\r\nTransfer characteristics : BT.709\r\nMatrix coefficients : BT.709\r\n\r\nAudio\r\nID : 2\r\nFormat : AAC\r\nFormat/Info : Advanced Audio Codec\r\nFormat profile : LC\r\nCodec ID : 40\r\nDuration : 25mn 44s\r\nBit rate mode : Variable\r\nBit rate : 192 Kbps\r\nMaximum bit rate : 390 Kbps\r\nChannel count : 2 channels\r\nChannel positions : Front: L R\r\nSampling rate : 48.0 KHz\r\nCompression mode : Lossy\r\nStream size : 34.9 MiB (3%)\r\nLanguage : English\r\nEncoded date : UTC 2013-12-06 20:49:49\r\nTagged date : UTC 2013-12-06 20:49:49\r\n\r\n