K Two Teasing Tongues 8 A

Two Teasing Tongues 10 - BK Two Teasing Tongues 8 B

Posted in HD Porn, Pornstar, Sex Movies, Teen, Threesome | 11553 Views |


Rate this girl !!!




pic\r\n

[K Klixen Productions / clips4sale.com] Madlin, Vanda (Two Teasing Tongues 8) [2013 г., Blowjob]

\r\nK Two Teasing Tongues 8 – A\r\npicImya actress: Madlin, Vanda\r\nName movie: Two Teasing Tongues 8\r\nSubsite and site: K Klixen Productions / clips4sale.com\r\nProduction year: 2013\r\nCategory: Blowjob\r\nDuration: 00:33:18\r\nDescription: Madlin and Vanda POV blowjob\r\nVideo Format: MPEG\r\nVideo codec: H.264 / AVC\r\nAudio codec: AAC\r\nVideo: MPEG4 Video (H264) 852×480 29.97fps 2010kbps\r\nAudio: AAC 44100Hz stereo 95kbps\r\n\r\npic\r\n\r\n \r\n\r\n 



DOWNLOAD

Keep2share.cc - Uploaded.net - Openload.co - Rapidu.net



http://k2s.cc/file/c7995e09de776/Cl1ps.4.S4l3.M4dl1n%2C.V4nd4.Two.T34s1ng.Tongu3s.8.P4rt.4.mp4

http://ul.to/e98aesoz/Cl1ps.4.S4l3.M4dl1n,.V4nd4.Two.T34s1ng.Tongu3s.8.P4rt.4.mp4


Premium here:
uploaded.net
keep2share.cc
rapidu.net.cc


Teens related to K Two Teasing Tongues 8 A


xxx new move hQ dawonlod ryushare uploaded keep2share

xxx new move hQ dawonlod

porn move i hd and small size 226779 ryushare uploaded keep2share

porn move i hd and small size 226779

High Definition Movies on HD 4341 ryushare uploaded keep2share

High Definition Movies on HD 4341

xvideohqdownlod 226407 ryushare uploaded keep2share

xvideohqdownlod 226407

HD Porn Teen Sex Videos 4693 ryushare uploaded keep2share

HD Porn Teen Sex Videos 4693

Teen Sex Movies Young Porn Tube Vids 2104 ryushare uploaded keep2share

Teen Sex Movies Young Porn Tube Vids 2104

8teen sex free movies com ryushare uploaded keep2share

8teen sex free movies com

Young XXX Tube Videos 225200 ryushare uploaded keep2share

Young XXX Tube Videos 225200

Amateur Teen Sex 5388 ryushare uploaded keep2share

Amateur Teen Sex 5388

High Definition Movies on HD Teen Porn XXX Tube 225706 ryushare uploaded keep2share

High Definition Movies on HD Teen Porn XXX Tube 225706

Teens in Porno young porn videos and free teen sex 224145 ryushare uploaded keep2share

Teens in Porno young porn videos and free teen sex 224145

High Definition Movies on HD Teen Porn XXX Tube 2367 ryushare uploaded keep2share

High Definition Movies on HD Teen Porn XXX Tube 2367

bd hd hq xxx pron video ryushare uploaded keep2share

bd hd hq xxx pron video

fullhdsexvideo ryushare uploaded keep2share

fullhdsexvideo

LegalPorno.com] Rebecca Black takes 3 cocks in ryushare uploaded keep2share

LegalPorno.com] Rebecca Black takes 3 cocks in

fresh teen full hd sex ryushare uploaded keep2share

fresh teen full hd sex

Kissme Girl – Aidra Fox & Sasha ryushare uploaded keep2share

Kissme Girl – Aidra Fox & Sasha

Check Out What Ive Learned ryushare uploaded keep2share

Check Out What Ive Learned

Lena, Galina – Fucking Together is Awesome ryushare uploaded keep2share

Lena, Galina – Fucking Together is Awesome

Free High Quality Sex Movies 225393 ryushare uploaded keep2share

Free High Quality Sex Movies 225393

College Teen Sex 225721 ryushare uploaded keep2share

College Teen Sex 225721

HD Porn Video 1455 ryushare uploaded keep2share

HD Porn Video 1455

Teens in Porno young porn videos and free teen sex 5182 ryushare uploaded keep2share

Teens in Porno young porn videos and free teen sex 5182

Hot Teen Sex 2145 ryushare uploaded keep2share

Hot Teen Sex 2145

telecharger free young sex mp4 hd ryushare uploaded keep2share

telecharger free young sex mp4 hd

Porn teen hd downloads 225513 ryushare uploaded keep2share

Porn teen hd downloads 225513

Nude Teens fucking hard 1825 ryushare uploaded keep2share

Nude Teens fucking hard 1825

Teen Porn XXX Tube 225019 ryushare uploaded keep2share

Teen Porn XXX Tube 225019

High Definition Movies on HD 5364 ryushare uploaded keep2share

High Definition Movies on HD 5364

HD Porn Teen Sex Videos 4992 ryushare uploaded keep2share

HD Porn Teen Sex Videos 4992

Hd young videos 225871 ryushare uploaded keep2share

Hd young videos 225871

HD Porn Video 2499 ryushare uploaded keep2share

HD Porn Video 2499

Teen Sex Movies Young Porn Tube Vids 225369 ryushare uploaded keep2share

Teen Sex Movies Young Porn Tube Vids 225369

Alica – Quiet but deadly ryushare uploaded keep2share

Alica – Quiet but deadly

Teen Porn XXX Tube 225857 ryushare uploaded keep2share

Teen Porn XXX Tube 225857

Report broken links / Post a comment

You must be logged in to post a comment.



General\r\nComplete name : D:hd teens porn download free online[K Klixen Productions / clips4sale.com] Madlin, Vanda (Two Teasing Tongues 8) [2013 г., Blowjob].PArt.A.mp4\r\nFormat : MPEG-4\r\nCodec ID : M4V \r\nFile size : 331 MiB\r\nDuration : 21mn 56s\r\nOverall bit rate mode : Variable\r\nOverall bit rate : 2 112 Kbps\r\nEncoded date : UTC 1970-01-01 00:00:00\r\nTagged date : UTC 1970-01-01 00:00:00\r\n\r\nVideo\r\nID : 1\r\nFormat : AVC\r\nFormat/Info : Advanced Video Codec\r\nFormat profile : [email protected]\r\nFormat settings, CABAC : No\r\nFormat settings, ReFrames : 1 frame\r\nFormat settings, GOP : M=1, N=12\r\nCodec ID : avc1\r\nCodec ID/Info : Advanced Video Coding\r\nDuration : 21mn 56s\r\nBit rate : 2 000 Kbps\r\nWidth : 852 pixels\r\nHeight : 480 pixels\r\nDisplay aspect ratio : 16:9\r\nFrame rate mode : Constant\r\nFrame rate : 29.970 fps\r\nColor space : YUV\r\nChroma subsampling : 4:2:0\r\nBit depth : 8 bits\r\nScan type : Progressive\r\nBits/(Pixel*Frame) : 0.163\r\nStream size : 316 MiB (95%)\r\nWriting library : x264 core 77\r\nEncoding settings : cabac=0 / ref=1 / deblock=0:0:0 / analyse=0x1:0 / me=dia / subme=8 / psy=1 / psy_rd=1.0:0.0 / mixed_ref=0 / me_range=16 / chroma_me=0 / trellis=0 / 8x8dct=0 / cqm=0 / deadzone=21,11 / chroma_qp_offset=-2 / threads=2 / nr=0 / decimate=1 / mbaff=0 / constrained_intra=0 / bframes=0 / keyint=12 / keyint_min=7 / scenecut=0 / rc_lookahead=29 / rc=cbr / mbtree=1 / bitrate=2000 / ratetol=1.0 / qcomp=0.60 / qpmin=10 / qpmax=51 / qpstep=4 / vbv_maxrate=10000 / vbv_bufsize=10000 / ip_ratio=1.41 / aq=1:1.00\r\nLanguage : German\r\nEncoded date : UTC 1970-01-01 00:00:00\r\nTagged date : UTC 1970-01-01 00:00:00\r\n\r\nAudio\r\nID : 2\r\nFormat : AAC\r\nFormat/Info : Advanced Audio Codec\r\nFormat profile : LC\r\nCodec ID : 40\r\nDuration : 21mn 56s\r\nBit rate mode : Variable\r\nBit rate : 96.0 Kbps\r\nChannel(s) : 2 channels\r\nChannel positions : Front: L R\r\nSampling rate : 44.1 KHz\r\nCompression mode : Lossy\r\nStream size : 15.1 MiB (5%)\r\nLanguage : German\r\nEncoded date : UTC 1970-01-01 00:00:00\r\nTagged date : UTC 1970-01-01 00:00:00\r\n\r\n