K Three Teasing Tongues 5 – A

Alexis Rodriguez – So Much AssK Three Teasing Tongues 5 -B

Posted in HD Porn, Pornstar, Sex Movies, Teen, Threesome | 18199 Views |


Rate this girl !!!




[K Klixen Productions / clips4sale.com] Vivien Bell, Kyra Hot, Kiara Lord (K Three Teasing Tongues 5) [2014 г., Blowjob, Blondes, 720p]

\r\nK Three Teasing Tongues \r\n\r\nK Three Teasing Tongues \r\n\r\nK Three Teasing Tongues 5\r\npicImya Actress: Vivien Bell, Kyra Hot, Kiara Lord\r\nName of roller: K Three Teasing Tongues 5\r\nSubsites and site: K Klixen Productions / clips4sale.com\r\nProduction year: 2014\r\nGenre: Blowjob, Blondes\r\nDuration: 00:41:33\r\n\r\n



DOWNLOAD

Keep2share.cc - Uploaded.net - Openload.co - Rapidu.net


http://played.to/ua2lqpd2lic0

http://uploaded.net/file/hnpaunqa/a-hj298a%20K%20Three%20Te.asing%20To.ngues%205%20A.mp4


Premium here:
uploaded.net
keep2share.cc
rapidu.net.cc


Teens related to K Three Teasing Tongues 5 – A


Girls sex art hd teens videos 225744 ryushare uploaded keep2share

Girls sex art hd teens videos 225744

Teen Porn XXX Tube 225861 ryushare uploaded keep2share

Teen Porn XXX Tube 225861

Teen Sex Movies Young Porn Tube Vids 5179 ryushare uploaded keep2share

Teen Sex Movies Young Porn Tube Vids 5179

HD porn uploaded 3712 ryushare uploaded keep2share

HD porn uploaded 3712

18 years girl xxx sex videos) 4656 ryushare uploaded keep2share

18 years girl xxx sex videos) 4656

The best Teen sex 224192 ryushare uploaded keep2share

The best Teen sex 224192

Porno lesbian young teens movies 4570 ryushare uploaded keep2share

Porno lesbian young teens movies 4570

Uploaded net porn XXX 224971 ryushare uploaded keep2share

Uploaded net porn XXX 224971

pc xxx movie clips 226764 ryushare uploaded keep2share

pc xxx movie clips 226764

free download hd romance porn movie 226678 ryushare uploaded keep2share

free download hd romance porn movie 226678

Beata & Denis Fandado [SexArt] ryushare uploaded keep2share

Beata & Denis Fandado [SexArt]

Sex and lots of milk ryushare uploaded keep2share

Sex and lots of milk

hd 1taem xxx video ryushare uploaded keep2share

hd 1taem xxx video

www sexhd-yesxxx com 226556 ryushare uploaded keep2share

www sexhd-yesxxx com 226556

First time Sexual Films 18 sex xxx 5336 ryushare uploaded keep2share

First time Sexual Films 18 sex xxx 5336

The best Teen sex 4035 ryushare uploaded keep2share

The best Teen sex 4035

Teen xxx sex hd 224866 ryushare uploaded keep2share

Teen xxx sex hd 224866

Teen porn movies 225435 ryushare uploaded keep2share

Teen porn movies 225435

Young Sex Movies 5605 ryushare uploaded keep2share

Young Sex Movies 5605

HD Teens Sex Tube Videos XxX 4484 ryushare uploaded keep2share

HD Teens Sex Tube Videos XxX 4484

AbbyWinters.com – Carmina & Pablo ryushare uploaded keep2share

AbbyWinters.com – Carmina & Pablo

gina devine seks 226666 ryushare uploaded keep2share

gina devine seks 226666

Good Teen Tube Sexy Young Naked Girls Movies 225111 ryushare uploaded keep2share

Good Teen Tube Sexy Young Naked Girls Movies 225111

Two Boys & One Girl – X-Art ryushare uploaded keep2share

Two Boys & One Girl – X-Art

ساريه السواس افلامsexx sexx xxxxxx xxx 226756 ryushare uploaded keep2share

ساريه السواس افلامsexx sexx xxxxxx xxx 226756

Teen Tits Tube, Young Girls Porn Videos 5028 ryushare uploaded keep2share

Teen Tits Tube, Young Girls Porn Videos 5028

Teen porn movies 3950 ryushare uploaded keep2share

Teen porn movies 3950

Adult Hardcore XXX Sex Videos 1705 ryushare uploaded keep2share

Adult Hardcore XXX Sex Videos 1705

HD Porn Videos 2135 ryushare uploaded keep2share

HD Porn Videos 2135

antartika sex hd ryushare uploaded keep2share

antartika sex hd

HD Porn Videos 1271 ryushare uploaded keep2share

HD Porn Videos 1271

Nude Teens fucking hard 1617 ryushare uploaded keep2share

Nude Teens fucking hard 1617

8 Teen XXX – Teen Sex 225179 ryushare uploaded keep2share

8 Teen XXX – Teen Sex 225179

Teen Sex Movies Young Porn Tube Vids 224610 ryushare uploaded keep2share

Teen Sex Movies Young Porn Tube Vids 224610

Young teens tube hot girls free porn video 5570 ryushare uploaded keep2share

Young teens tube hot girls free porn video 5570

Report broken links / Post a comment

You must be logged in to post a comment.



General\r\nComplete name : C:[K Klixen Productions / clips4sale.com] Vivien Bell, Kyra Hot, Kiara Lord (K Three Teasing Tongues 5) [2014 г., Blowjob, Blondes, 720p]DownloadsK Three Teasing Tongues 5a-hj298a K Three Teasing Tongues 5 A.mp4\r\nFormat : MPEG-4\r\nFormat profile : Base Media / Version 2\r\nCodec ID : mp42\r\nFile size : 977 MiB\r\nDuration : 29mn 51s\r\nOverall bit rate mode : Variable\r\nOverall bit rate : 4 576 Kbps\r\nEncoded date : UTC 2014-10-26 19:38:08\r\nTagged date : UTC 2014-10-26 20:19:05\r\nWriting application : HandBrake 0.9.9 2013052900\r\n\r\nVideo\r\nID : 1\r\nFormat : AVC\r\nFormat/Info : Advanced Video Codec\r\nFormat profile : [email protected]\r\nFormat settings, CABAC : Yes\r\nFormat settings, ReFrames : 4 frames\r\nCodec ID : avc1\r\nCodec ID/Info : Advanced Video Coding\r\nDuration : 29mn 51s\r\nBit rate : 4 500 Kbps\r\nWidth : 1 280 pixels\r\nHeight : 720 pixels\r\nDisplay aspect ratio : 16:9\r\nFrame rate mode : Constant\r\nFrame rate : 25.000 fps\r\nColor space : YUV\r\nChroma subsampling : 4:2:0\r\nBit depth : 8 bits\r\nScan type : Progressive\r\nBits/(Pixel*Frame) : 0.195\r\nStream size : 962 MiB (99%)\r\nWriting library : x264 core 130 r2273 b3065e6\r\nEncoding settings : cabac=1 / ref=1 / deblock=1:0:0 / analyse=0x1:0x111 / me=hex / subme=2 / psy=1 / psy_rd=1.00:0.00 / mixed_ref=0 / me_range=16 / chroma_me=1 / trellis=0 / 8x8dct=0 / cqm=0 / deadzone=21,11 / fast_pskip=1 / chroma_qp_offset=0 / threads=3 / lookahead_threads=1 / sliced_threads=0 / nr=0 / decimate=1 / interlaced=0 / bluray_compat=0 / constrained_intra=0 / bframes=3 / b_pyramid=2 / b_adapt=1 / b_bias=0 / direct=1 / weightb=1 / open_gop=0 / weightp=1 / keyint=250 / keyint_min=25 / scenecut=40 / intra_refresh=0 / rc_lookahead=10 / rc=abr / mbtree=1 / bitrate=4500 / ratetol=1.0 / qcomp=0.60 / qpmin=0 / qpmax=69 / qpstep=4 / vbv_maxrate=20000 / vbv_bufsize=25000 / nal_hrd=none / ip_ratio=1.40 / aq=1:1.00\r\nEncoded date : UTC 2014-10-26 19:38:08\r\nTagged date : UTC 2014-10-26 20:19:05\r\nColor primaries : BT.709\r\nTransfer characteristics : BT.709\r\nMatrix coefficients : BT.709\r\n\r\nAudio\r\nID : 2\r\nFormat : AAC\r\nFormat/Info : Advanced Audio Codec\r\nFormat profile : LC\r\nCodec ID : 40\r\nDuration : 29mn 51s\r\nBit rate mode : Variable\r\nBit rate : 63.9 Kbps\r\nMaximum bit rate : 117 Kbps\r\nChannel count : 2 channels\r\nChannel positions : Front: L R\r\nSampling rate : 44.1 KHz\r\nCompression mode : Lossy\r\nStream size : 13.6 MiB (1%)\r\nLanguage : German\r\nEncoded date : UTC 2014-10-26 19:38:08\r\nTagged date : UTC 2014-10-26 20:19:05\r\n\r\n