Jessie Volt, Sierra Nevadah – Blonde Seduction

Milagres – A Cool Tool For MeJanice Griffith – Fucking Her Right

Posted in Amateur, HD Porn, Lesbian, Sex Movies, Teen | 7747 Views |


Rate this girl !!!




cover

\r\n

1920x1080p / MP4 / 1.34 GB

\r\n\r\n

[NubileFilms.com] Jessie Volt, Sierra Nevadah – Blonde Seduction

\r\n \r\n

SCREENSHOTS:

\r\n

screens



DOWNLOAD

Keep2share.cc - Uploaded.net - Openload.co - Rapidu.net


http://k2s.cc/file/7b9e20cf0ba5d/Blond3.S3duct1on.mp4
http://streamcloud.eu/e9zsj1zjo34y/Blond3.S3duct1on.mp4.html
http://ul.to/lgiz58zh/Blond3.S3duct1on.mp4


Premium here:
uploaded.net
keep2share.cc
rapidu.net.cc


Teens related to Jessie Volt, Sierra Nevadah – Blonde Seduction


HD Teen Sex Tube 4748 ryushare uploaded keep2share

HD Teen Sex Tube 4748

BLU FIMS BFXX GILRS COM 226254 ryushare uploaded keep2share

BLU FIMS BFXX GILRS COM 226254

Model porno sex 2822 ryushare uploaded keep2share

Model porno sex 2822

1By-Day.com Danika – Undercover Banana ryushare uploaded keep2share

1By-Day.com Danika – Undercover Banana

HQ Sex Movies Download 4226 ryushare uploaded keep2share

HQ Sex Movies Download 4226

Free Teen Porn Videos at Teen Sex Tube XXX 224751 ryushare uploaded keep2share

Free Teen Porn Videos at Teen Sex Tube XXX 224751

WowGirls.com Linda Sweet, Lucy Li – True Fulfillment ryushare uploaded keep2share

WowGirls.com Linda Sweet, Lucy Li – True Fulfillment

Nubiles-Porn.com Olivia Devine, Loving Touch ryushare uploaded keep2share

Nubiles-Porn.com Olivia Devine, Loving Touch

Brunnete Pornstar Teenage Fucked ryushare uploaded keep2share

Brunnete Pornstar Teenage Fucked

Sara Luvv – Dorm Room Invitation ryushare uploaded keep2share

Sara Luvv – Dorm Room Invitation

HD Porn Videos 225354 ryushare uploaded keep2share

HD Porn Videos 225354

www hdfuckvidoes com ryushare uploaded keep2share

www hdfuckvidoes com

Anjelica – One Love… One Life ryushare uploaded keep2share

Anjelica – One Love… One Life

Sweet Teen Porn – Young Porn Videos 225089 ryushare uploaded keep2share

Sweet Teen Porn – Young Porn Videos 225089

18XGirls.com Tori (aka Lola Taylor) ryushare uploaded keep2share

18XGirls.com Tori (aka Lola Taylor)

xxx garls and boys 226650 ryushare uploaded keep2share

xxx garls and boys 226650

HD teen sex tube 3568 ryushare uploaded keep2share

HD teen sex tube 3568

Young teens tube hot girls free porn video 224027 ryushare uploaded keep2share

Young teens tube hot girls free porn video 224027

CastingCouch X Jayden Full HD ryushare uploaded keep2share

CastingCouch X Jayden Full HD

fast tiam movie hot xxx hd free 226715 ryushare uploaded keep2share

fast tiam movie hot xxx hd free 226715

Nude Teens fucking hard 223937 ryushare uploaded keep2share

Nude Teens fucking hard 223937

Teen Sex Movies 1242 ryushare uploaded keep2share

Teen Sex Movies 1242

Porn party teen girls 224442 ryushare uploaded keep2share

Porn party teen girls 224442

Teen porn movies 2132 ryushare uploaded keep2share

Teen porn movies 2132

Irina hot teen ryushare uploaded keep2share

Irina hot teen

Free Porn Videos Xxx Movies Pussy Porn 5324 ryushare uploaded keep2share

Free Porn Videos Xxx Movies Pussy Porn 5324

Free Teen Porn Videos at Teen Sex Tube XXX 3958 ryushare uploaded keep2share

Free Teen Porn Videos at Teen Sex Tube XXX 3958

Young 720p hd porn 4581 ryushare uploaded keep2share

Young 720p hd porn 4581

pon ster xxxxxx ryushare uploaded keep2share

pon ster xxxxxx

Teen Sex Movies 1141 ryushare uploaded keep2share

Teen Sex Movies 1141

College Teen Sex 5006 ryushare uploaded keep2share

College Teen Sex 5006

xxx18 yes 226216 ryushare uploaded keep2share

xxx18 yes 226216

kyra hot and kiara lord klixen three teasing tongues 226098 ryushare uploaded keep2share

kyra hot and kiara lord klixen three teasing tongues 226098

First time Sexual Films 18 sex xxx 1576 ryushare uploaded keep2share

First time Sexual Films 18 sex xxx 1576

Teen 18 Porn XXX Clips Naked 3189 ryushare uploaded keep2share

Teen 18 Porn XXX Clips Naked 3189

Report broken links / Post a comment

You must be logged in to post a comment.



General\r\nComplete name : D:[NubileFilms.com] Jessie Volt, Sierra Nevadah – Blonde Seduction.mp4\r\nFormat : MPEG-4\r\nFormat profile : Base Media\r\nCodec ID : isom\r\nFile size : 1.34 GiB\r\nDuration : 24mn 6s\r\nOverall bit rate mode : Variable\r\nOverall bit rate : 7 934 Kbps\r\nMovie name : ES\r\nTagged date : UTC 2014-09-06 07:31:37\r\nWriting application : Lavf55.37.101\r\n\r\nVideo\r\nID : 1\r\nFormat : AVC\r\nFormat/Info : Advanced Video Codec\r\nFormat profile : [email protected]\r\nFormat settings, CABAC : Yes\r\nFormat settings, ReFrames : 4 frames\r\nCodec ID : avc1\r\nCodec ID/Info : Advanced Video Coding\r\nDuration : 24mn 6s\r\nBit rate : 7 809 Kbps\r\nWidth : 1 920 pixels\r\nHeight : 1 080 pixels\r\nDisplay aspect ratio : 16:9\r\nFrame rate mode : Constant\r\nFrame rate : 23.976 fps\r\nColor space : YUV\r\nChroma subsampling : 4:2:0\r\nBit depth : 8 bits\r\nScan type : Progressive\r\nBits/(Pixel*Frame) : 0.157\r\nStream size : 1.32 GiB (98%)\r\nWriting library : x264 core 142\r\nEncoding settings : cabac=1 / ref=2 / deblock=1:-1:-1 / analyse=0x1:0x111 / me=umh / subme=8 / psy=1 / psy_rd=1.00:0.15 / mixed_ref=1 / me_range=16 / chroma_me=1 / trellis=1 / 8x8dct=0 / cqm=0 / deadzone=21,11 / fast_pskip=1 / chroma_qp_offset=-3 / threads=24 / lookahead_threads=4 / sliced_threads=0 / nr=0 / decimate=1 / interlaced=0 / bluray_compat=0 / constrained_intra=0 / bframes=3 / b_pyramid=2 / b_adapt=2 / b_bias=0 / direct=3 / weightb=1 / open_gop=0 / weightp=0 / keyint=250 / keyint_min=23 / scenecut=40 / intra_refresh=0 / rc_lookahead=50 / rc=crf / mbtree=1 / crf=18.0 / qcomp=0.60 / qpmin=0 / qpmax=69 / qpstep=4 / ip_ratio=1.40 / aq=1:1.00\r\nLanguage : English\r\n\r\nAudio\r\nID : 2\r\nFormat : AAC\r\nFormat/Info : Advanced Audio Codec\r\nFormat profile : LC\r\nCodec ID : 40\r\nDuration : 24mn 6s\r\nDuration_LastFrame : -22ms\r\nBit rate mode : Variable\r\nBit rate : 119 Kbps\r\nMaximum bit rate : 196 Kbps\r\nChannel(s) : 2 channels\r\nChannel positions : Front: L R\r\nSampling rate : 44.1 KHz\r\nCompression mode : Lossy\r\nStream size : 20.5 MiB (1%)\r\nLanguage : English\r\n\r\n