Janna – Real Homemade Sex Tape

Katya - Creampie-AngelsLola Taylor & Franck Franco – Saturday Night

Posted in Amateur, HD Porn, Sex Movies, Teen | 10583 Views |


Rate this girl !!!




cover

\r\n

1920x1080p / MP4 / 1.09 GB

\r\n\r\n

[YoungLibertines.com] Janna – Real Homemade Sex Tape

\r\n \r\n

SCREENSHOTS:

\r\n

screens



DOWNLOAD

Keep2share.cc - Uploaded.net - Openload.co - Rapidu.net


http://k2s.cc/file/c8c9b739564b0/YL_J4nn4_FvllHD_O7_O9_2O14.mp4

http://ul.to/6ageet8x/YL_J4nn4_FvllHD_O7_O9_2O14.mp4


Premium here:
uploaded.net
keep2share.cc
rapidu.net.cc


Teens related to Janna – Real Homemade Sex Tape


Teenies Videos – Teen Porn, Teen Sex, XXX Free Videos 1642 ryushare uploaded keep2share

Teenies Videos – Teen Porn, Teen Sex, XXX Free Videos 1642

sex full clarety videos 226664 ryushare uploaded keep2share

sex full clarety videos 226664

xxx www888 ryushare uploaded keep2share

xxx www888

hdsex movea com 226516 ryushare uploaded keep2share

hdsex movea com 226516

Uploaded net porn XXX 5126 ryushare uploaded keep2share

Uploaded net porn XXX 5126

Young XXX Tube Videos 3807 ryushare uploaded keep2share

Young XXX Tube Videos 3807

Hardcore sex videos in the high definition quality 225971 ryushare uploaded keep2share

Hardcore sex videos in the high definition quality 225971

Very hot brunette fucked ryushare uploaded keep2share

Very hot brunette fucked

Denni Fresh – 21Naturals ryushare uploaded keep2share

Denni Fresh – 21Naturals

xxxnx videos hd 18 con 226659 ryushare uploaded keep2share

xxxnx videos hd 18 con 226659

High Definition Movies on HD 5169 ryushare uploaded keep2share

High Definition Movies on HD 5169

Dreams-HD.com Nikka ryushare uploaded keep2share

Dreams-HD.com Nikka

www hd 18years sex videos free downlode net 226256 ryushare uploaded keep2share

www hd 18years sex videos free downlode net 226256

1280HD Xxx com ryushare uploaded keep2share

1280HD Xxx com

Teens Sweet orgy ryushare uploaded keep2share

Teens Sweet orgy

Young Sex Movies 3968 ryushare uploaded keep2share

Young Sex Movies 3968

Cadence – Sex Massage ryushare uploaded keep2share

Cadence – Sex Massage

21Naturals.com Alysa Gap ryushare uploaded keep2share

21Naturals.com Alysa Gap

Hot hd teen sex videos 4713 ryushare uploaded keep2share

Hot hd teen sex videos 4713

Girls do porn in HD 223747 ryushare uploaded keep2share

Girls do porn in HD 223747

Porno movies young teens lesbian 224977 ryushare uploaded keep2share

Porno movies young teens lesbian 224977

Small girls and boys porn 4473 ryushare uploaded keep2share

Small girls and boys porn 4473

Hot Teen Sex HD videos 225223 ryushare uploaded keep2share

Hot Teen Sex HD videos 225223

Porn party teen girls 224921 ryushare uploaded keep2share

Porn party teen girls 224921

NubileFilms.com Karol Lilien – Sounds Of Passion ryushare uploaded keep2share

NubileFilms.com Karol Lilien – Sounds Of Passion

Young legal porn clips 4698 ryushare uploaded keep2share

Young legal porn clips 4698

AbbyWinters.com – Carmina & Pablo ryushare uploaded keep2share

AbbyWinters.com – Carmina & Pablo

x videos mobi hd ryushare uploaded keep2share

x videos mobi hd

www free hd virgin porn download com ryushare uploaded keep2share

www free hd virgin porn download com

Couple of angels ryushare uploaded keep2share

Couple of angels

High Definition Movies on HD Teen Porn XXX Tube 2483 ryushare uploaded keep2share

High Definition Movies on HD Teen Porn XXX Tube 2483

porn videos direct download 226299 ryushare uploaded keep2share

porn videos direct download 226299

TrickyMasseur.com Raquel ryushare uploaded keep2share

TrickyMasseur.com Raquel

Porn teen hd downloads 224517 ryushare uploaded keep2share

Porn teen hd downloads 224517

X-Art – Addison – No Turning Back ryushare uploaded keep2share

X-Art – Addison – No Turning Back

Report broken links / Post a comment

You must be logged in to post a comment.



General\r\nComplete name : D:[YoungLibertines.com] Janna – Real Homemade Sex Tape.mp4\r\nFormat : MPEG-4\r\nFormat profile : Base Media\r\nCodec ID : isom\r\nFile size : 1.09 GiB\r\nDuration : 21mn 47s\r\nOverall bit rate : 7 151 Kbps\r\nWriting application : Lavf54.22.101\r\nComment : Exclusive for PornoReleases.com\r\n\r\nVideo\r\nID : 1\r\nFormat : AVC\r\nFormat/Info : Advanced Video Codec\r\nFormat profile : [email protected]\r\nFormat settings, CABAC : Yes\r\nFormat settings, ReFrames : 4 frames\r\nCodec ID : avc1\r\nCodec ID/Info : Advanced Video Coding\r\nDuration : 21mn 47s\r\nBit rate : 7 017 Kbps\r\nWidth : 1 920 pixels\r\nHeight : 1 080 pixels\r\nDisplay aspect ratio : 16:9\r\nFrame rate mode : Constant\r\nFrame rate : 25.000 fps\r\nColor space : YUV\r\nChroma subsampling : 4:2:0\r\nBit depth : 8 bits\r\nScan type : Progressive\r\nBits/(Pixel*Frame) : 0.135\r\nStream size : 1.07 GiB (98%)\r\nWriting library : x264 core 125\r\nEncoding settings : cabac=1 / ref=3 / deblock=1:0:0 / analyse=0x3:0x113 / me=hex / subme=7 / psy=1 / psy_rd=1.00:0.00 / mixed_ref=1 / me_range=16 / chroma_me=1 / trellis=0 / 8x8dct=1 / cqm=0 / deadzone=21,11 / fast_pskip=1 / chroma_qp_offset=-2 / threads=16 / lookahead_threads=2 / sliced_threads=0 / nr=0 / decimate=1 / interlaced=0 / bluray_compat=0 / constrained_intra=0 / bframes=8 / b_pyramid=2 / b_adapt=1 / b_bias=0 / direct=1 / weightb=1 / open_gop=0 / weightp=2 / keyint=50 / keyint_min=5 / scenecut=40 / intra_refresh=0 / rc_lookahead=40 / rc=crf / mbtree=1 / crf=20.0 / qcomp=0.60 / qpmin=0 / qpmax=69 / qpstep=4 / ip_ratio=1.40 / aq=1:1.00\r\nLanguage : Russian\r\n\r\nAudio\r\nID : 2\r\nFormat : AAC\r\nFormat/Info : Advanced Audio Codec\r\nFormat profile : LC\r\nCodec ID : 40\r\nDuration : 21mn 47s\r\nBit rate mode : Constant\r\nBit rate : 128 Kbps\r\nChannel(s) : 2 channels\r\nChannel positions : Front: L R\r\nSampling rate : 44.1 KHz\r\nCompression mode : Lossy\r\nStream size : 19.9 MiB (2%)\r\nLanguage : Russian\r\n\r\n