Iwia A & Lorena B & Greg Baldwin – Dare

Denni Fresh - 21NaturalsMaaike - A nice handjob to finish it

Posted in HD Porn, Pornstar, Sex Movies, Teen | 11478 Views |


Rate this girl !!!




pic\r\n\r\nIwia A & Lorena B & Greg Baldwin – Dare [SexArt]\r\n\r\nVideo Format: MP4\r\nDuration: 00:20:06\r\nVideo: AVC; 1280×720 (16:9); 2000 Kbps; 25 fps\r\nAudio: AAC LC; 119 Kbps; VBR; 2 ch\r\n\r\nhttp://i60.fastpic.ru/big/2013/0825/1a/41cb0412997f6f2f29ecf67010312d1a.jpg\r\n\r\n 



DOWNLOAD

Keep2share.cc - Uploaded.net - Openload.co - Rapidu.net


http://keep2share.cc/file/52e7feac69641
http://ryushare.com/hg1otz26tgb4/Iw1a.L0r3na.rar
http://ul.to/qb4aqxi3


Premium here:
uploaded.net
keep2share.cc
rapidu.net.cc

Teens related to Iwia A & Lorena B & Greg Baldwin – Dare


www hdworld xxx video com ryushare uploaded keep2share

www hdworld xxx video com

image sexxxx porn 226599 ryushare uploaded keep2share

image sexxxx porn 226599

Angel-Desert – Publics Pizzeria – Il Gusto ryushare uploaded keep2share

Angel-Desert – Publics Pizzeria – Il Gusto

Uploaded net porn XXX 224573 ryushare uploaded keep2share

Uploaded net porn XXX 224573

Teen porn movies 3390 ryushare uploaded keep2share

Teen porn movies 3390

Eva Rides on Top on a Nice Thick Cock ryushare uploaded keep2share

Eva Rides on Top on a Nice Thick Cock

8teen sex free movies com ryushare uploaded keep2share

8teen sex free movies com

no turning back now and part one in free x art 226020 ryushare uploaded keep2share

no turning back now and part one in free x art 226020

HQ Sex Movies Download 225194 ryushare uploaded keep2share

HQ Sex Movies Download 225194

Young 720p hd porn 4007 ryushare uploaded keep2share

Young 720p hd porn 4007

Girls do porn in HD 225281 ryushare uploaded keep2share

Girls do porn in HD 225281

In Hd quality xxx video for download 226652 ryushare uploaded keep2share

In Hd quality xxx video for download 226652

Porn HQ Movei free downlode ryushare uploaded keep2share

Porn HQ Movei free downlode

Young Sex Movies 224182 ryushare uploaded keep2share

Young Sex Movies 224182

blowjob craving lips 226579 ryushare uploaded keep2share

blowjob craving lips 226579

Teenies Videos – Teen Porn, Teen Sex, XXX Free Videos 2648 ryushare uploaded keep2share

Teenies Videos – Teen Porn, Teen Sex, XXX Free Videos 2648

16yers hd xxx com 226434 ryushare uploaded keep2share

16yers hd xxx com 226434

TrickyMasseur.com Joanna ryushare uploaded keep2share

TrickyMasseur.com Joanna

Daria – Clinic Sex ryushare uploaded keep2share

Daria – Clinic Sex

Teen 18 Porn XXX Clips Naked 224134 ryushare uploaded keep2share

Teen 18 Porn XXX Clips Naked 224134

Porn HD Sex HD Teen Sex 224013 ryushare uploaded keep2share

Porn HD Sex HD Teen Sex 224013

Teenage Fuck Clips 4003 ryushare uploaded keep2share

Teenage Fuck Clips 4003

Hot xxx move download 225987 ryushare uploaded keep2share

Hot xxx move download 225987

New sexy video pc hd ryushare uploaded keep2share

New sexy video pc hd

Teen Tits Tube, Young Girls Porn Videos 2910 ryushare uploaded keep2share

Teen Tits Tube, Young Girls Porn Videos 2910

Movies Young legal porn 224316 ryushare uploaded keep2share

Movies Young legal porn 224316

Hot Teen Sex 1819 ryushare uploaded keep2share

Hot Teen Sex 1819

xxx sexhddownlod 226729 ryushare uploaded keep2share

xxx sexhddownlod 226729

Riley Reid – Forget Me Not ryushare uploaded keep2share

Riley Reid – Forget Me Not

Free Young Porn Videos XXX Teen Porn 224223 ryushare uploaded keep2share

Free Young Porn Videos XXX Teen Porn 224223

HD Porn Videos 4330 ryushare uploaded keep2share

HD Porn Videos 4330

College Teen Sex 1921 ryushare uploaded keep2share

College Teen Sex 1921

Xxx fuka in 226353 ryushare uploaded keep2share

Xxx fuka in 226353

teens sex vidio indir 226595 ryushare uploaded keep2share

teens sex vidio indir 226595

Good Teen Tube Sexy Young Naked Girls Movies 2535 ryushare uploaded keep2share

Good Teen Tube Sexy Young Naked Girls Movies 2535

Report broken links / Post a comment

You must be logged in to post a comment.



General\r\nComplete name : D:Iwia A & Lorena B & Greg Baldwin - Dare [SexArt.com HDSexArt.13.08.25.Iwia.A.And.Lorena.B.Dare.XXX.720p.mp4\r\nFormat : MPEG-4\r\nFormat profile : Base Media\r\nCodec ID : isom\r\nFile size : 307 MiB\r\nDuration : 20mn 6s\r\nOverall bit rate mode : Variable\r\nOverall bit rate : 2 132 Kbps\r\nEncoded date : UTC 2013-08-24 01:28:43\r\nTagged date : UTC 2013-08-24 01:28:43\r\nWriting application : Lavf53.32.100\r\n\r\nVideo\r\nID : 1\r\nFormat : AVC\r\nFormat/Info : Advanced Video Codec\r\nFormat profile : [email protected]\r\nFormat settings, CABAC : Yes\r\nFormat settings, ReFrames : 5 frames\r\nCodec ID : avc1\r\nCodec ID/Info : Advanced Video Coding\r\nDuration : 20mn 6s\r\nBit rate : 2 000 Kbps\r\nWidth : 1 280 pixels\r\nHeight : 720 pixels\r\nDisplay aspect ratio : 16:9\r\nFrame rate mode : Constant\r\nFrame rate : 25.000 fps\r\nColor space : YUV\r\nChroma subsampling : 4:2:0\r\nBit depth : 8 bits\r\nScan type : Progressive\r\nBits/(Pixel*Frame) : 0.087\r\nStream size : 287 MiB (94%)\r\nWriting library : x264 core 129 r2245 bc13772\r\nEncoding settings : cabac=1 / ref=5 / deblock=1:0:0 / analyse=0x3:0x113 / me=umh / subme=8 / psy=0 / mixed_ref=1 / me_range=16 / chroma_me=1 / trellis=1 / 8x8dct=1 / cqm=0 / deadzone=21,11 / fast_pskip=1 / chroma_qp_offset=0 / threads=36 / lookahead_threads=6 / sliced_threads=0 / nr=0 / decimate=1 / interlaced=0 / bluray_compat=0 / constrained_intra=0 / bframes=3 / b_pyramid=2 / b_adapt=2 / b_bias=0 / direct=3 / weightb=1 / open_gop=0 / weightp=2 / keyint=250 / keyint_min=25 / scenecut=40 / intra_refresh=0 / rc=2pass / mbtree=0 / bitrate=2000 / ratetol=1.0 / qcomp=0.60 / qpmin=10 / qpmax=51 / qpstep=4 / cplxblur=20.0 / qblur=0.5 / ip_ratio=1.40 / pb_ratio=1.30 / aq=1:1.00\r\nLanguage : English\r\nEncoded date : UTC 2013-08-24 01:28:43\r\nTagged date : UTC 2013-08-24 01:28:43\r\n\r\nAudio\r\nID : 2\r\nFormat : AAC\r\nFormat/Info : Advanced Audio Codec\r\nFormat profile : LC\r\nCodec ID : 40\r\nDuration : 20mn 6s\r\nBit rate mode : Variable\r\nBit rate : 128 Kbps\r\nChannel(s) : 2 channels\r\nChannel positions : Front: L R\r\nSampling rate : 44.1 KHz\r\nCompression mode : Lossy\r\nStream size : 18.2 MiB (6%)\r\nLanguage : English\r\nEncoded date : UTC 2013-08-24 01:28:43\r\nTagged date : UTC 2013-08-24 01:28:43\r\n\r\n