Hot Teen Sex HD videos 1578

Teenage Fuck Clips 1591First time Sexual Films 18 sex xxx 1576

Posted in Amateur, HD Porn, Sex Movies, Teen | 13522 Views |


Rate this girl !!!




\r\n\r\n\r\n\r\n\r\n\r\n\r\n\r\n\r\n\r\n\r\nhttp://img56.imagetwist.com/i/05235/l4veu43yvg3w.jpeg\r\n\r\n Link(2.92 Gb||40:56||1920*1080||MP4)



DOWNLOAD

Keep2share.cc - Uploaded.net - Openload.co - Rapidu.net


http://keep2share.cc/file/f5deee5f3b89b
http://ryushare.com/0k0vd19z0myb/STNRNTrs.rar
http://ul.to/voxpywbt


Premium here:
uploaded.net
keep2share.cc
rapidu.net.cc


Teens related to Hot Teen Sex HD videos 1578


hardcore sex hd download 226587 ryushare uploaded keep2share

hardcore sex hd download 226587

Young XXX Tube Videos 225357 ryushare uploaded keep2share

Young XXX Tube Videos 225357

Silvie Deluxe & Matt Ice – Drive ryushare uploaded keep2share

Silvie Deluxe & Matt Ice – Drive

Porno lesbian young teens movies 4570 ryushare uploaded keep2share

Porno lesbian young teens movies 4570

Young Sex Movies 2737 ryushare uploaded keep2share

Young Sex Movies 2737

HD Sex World Videos High Definition Free Porn 225696 ryushare uploaded keep2share

HD Sex World Videos High Definition Free Porn 225696

HD Sex World Videos High Definition Free Porn 225327 ryushare uploaded keep2share

HD Sex World Videos High Definition Free Porn 225327

Teen porn movies 224770 ryushare uploaded keep2share

Teen porn movies 224770

Teen Sex Videos Tube Movies 1466 ryushare uploaded keep2share

Teen Sex Videos Tube Movies 1466

Hot Teen Sex HD videos 2167 ryushare uploaded keep2share

Hot Teen Sex HD videos 2167

HD Sex World Videos High Definition Free Porn 2998 ryushare uploaded keep2share

HD Sex World Videos High Definition Free Porn 2998

Wow Porn Movies download) 224734 ryushare uploaded keep2share

Wow Porn Movies download) 224734

Anal with beautiful teen ryushare uploaded keep2share

Anal with beautiful teen

High Definition Movies on HD Teen Porn XXX Tube 3621 ryushare uploaded keep2share

High Definition Movies on HD Teen Porn XXX Tube 3621

www grils porn teen donlwod full jd moves 226395 ryushare uploaded keep2share

www grils porn teen donlwod full jd moves 226395

wow girs com 226007 ryushare uploaded keep2share

wow girs com 226007

Young Sex Movies 224539 ryushare uploaded keep2share

Young Sex Movies 224539

xxx movies hd english ryushare uploaded keep2share

xxx movies hd english

High Definition Movies on HD Teen Porn XXX Tube 4650 ryushare uploaded keep2share

High Definition Movies on HD Teen Porn XXX Tube 4650

Wow girls downloads hd 224848 ryushare uploaded keep2share

Wow girls downloads hd 224848

Remy’s Edging Orgasm Control ryushare uploaded keep2share

Remy’s Edging Orgasm Control

Uploaded net porn 2517 ryushare uploaded keep2share

Uploaded net porn 2517

Hot Teen Sex 4722 ryushare uploaded keep2share

Hot Teen Sex 4722

Wow porn tube movies 225566 ryushare uploaded keep2share

Wow porn tube movies 225566

1By-Day.com Danika – Undercover Banana ryushare uploaded keep2share

1By-Day.com Danika – Undercover Banana

Hot Teen Sex 2379 ryushare uploaded keep2share

Hot Teen Sex 2379

Porno movies young teens lesbian 5412 ryushare uploaded keep2share

Porno movies young teens lesbian 5412

hd porn moives for pc ryushare uploaded keep2share

hd porn moives for pc

Real Bushy Beavers 18 – Timea Bella ryushare uploaded keep2share

Real Bushy Beavers 18 – Timea Bella

College Teen Sex 2615 ryushare uploaded keep2share

College Teen Sex 2615

Nude Teens fucking hard 223931 ryushare uploaded keep2share

Nude Teens fucking hard 223931

Brandy Naughty – First Time Auditions ryushare uploaded keep2share

Brandy Naughty – First Time Auditions

Teen Sex Videos Tube Movies 4086 ryushare uploaded keep2share

Teen Sex Videos Tube Movies 4086

Teen Tits Tube, Young Girls Porn Videos 6209 ryushare uploaded keep2share

Teen Tits Tube, Young Girls Porn Videos 6209

8 Teen XXX – Teen Sex 1751 ryushare uploaded keep2share

8 Teen XXX – Teen Sex 1751

Report broken links / Post a comment

You must be logged in to post a comment.



General\r\nComplete name : D:HD Teens Download Porn Sex clips movies Tube.xxxSTNRNTrsSTNRNTrs.mp4\r\nFormat : MPEG-4\r\nFormat profile : Base Media / Version 2\r\nCodec ID : mp42\r\nFile size : 2.92 GiB\r\nDuration : 40mn 56s\r\nOverall bit rate mode : Variable\r\nOverall bit rate : 10.2 Mbps\r\nEncoded date : UTC 2014-01-22 22:39:35\r\nTagged date : UTC 2014-01-22 22:39:35\r\nWriting library : Apple QuickTime\r\n\r\nVideo\r\nID : 1\r\nFormat : AVC\r\nFormat/Info : Advanced Video Codec\r\nFormat profile : [email protected]\r\nFormat settings, CABAC : No\r\nFormat settings, ReFrames : 3 frames\r\nCodec ID : avc1\r\nCodec ID/Info : Advanced Video Coding\r\nDuration : 40mn 56s\r\nSource duration : 40mn 56s\r\nBit rate mode : Variable\r\nBit rate : 9 588 Kbps\r\nMaximum bit rate : 10.0 Mbps\r\nWidth : 1 920 pixels\r\nHeight : 1 080 pixels\r\nDisplay aspect ratio : 16:9\r\nFrame rate mode : Constant\r\nFrame rate : 29.970 fps\r\nStandard : Component\r\nColor space : YUV\r\nChroma subsampling : 4:2:0\r\nBit depth : 8 bits\r\nScan type : Progressive\r\nBits/(Pixel*Frame) : 0.154\r\nStream size : 2.74 GiB (94%)\r\nSource stream size : 2.86 GiB (98%)\r\nEncoded date : UTC 2014-01-22 22:39:35\r\nTagged date : UTC 2014-01-21 22:40:37\r\n\r\nAudio\r\nID : 2\r\nFormat : AAC\r\nFormat/Info : Advanced Audio Codec\r\nFormat profile : LC\r\nCodec ID : 40\r\nDuration : 40mn 56s\r\nBit rate mode : Variable\r\nBit rate : 192 Kbps\r\nMaximum bit rate : 202 Kbps\r\nChannel(s) : 2 channels\r\nChannel positions : Front: L R\r\nSampling rate : 48.0 KHz\r\nCompression mode : Lossy\r\nStream size : 56.2 MiB (2%)\r\nEncoded date : UTC 2014-01-22 22:39:35\r\nTagged date : UTC 2014-01-21 22:40:37\r\n\r\n