Hot Teen Sex HD videos 1371

HD Porn Videos 1376Teen 18 Porn XXX Clips Naked 1367

Posted in Amateur, HD Porn, Sex Movies, Teen | 16147 Views |


Rate this girl !!!




\r\n\r\n\r\n\r\nhttp://img102.imagetwist.com/i/05200/aaabti4xmtvg.jpg\r\n\r\n Link(841 Mb||24:43||1280*720||WMV)



DOWNLOAD

Keep2share.cc - Uploaded.net - Openload.co - Rapidu.net


http://ul.to/ewufjc1z
http://ryushare.com/7xaozejwbdi7/CRMPGSts.rar
http://keep2share.cc/file/42ada6071b346


Premium here:
uploaded.net
keep2share.cc
rapidu.net.cc


Teens related to Hot Teen Sex HD videos 1371


Veronika – Awesome sex with hot teeny ryushare uploaded keep2share

Veronika – Awesome sex with hot teeny

HQ Sex Movies Download 225197 ryushare uploaded keep2share

HQ Sex Movies Download 225197

Chinese videos in high definition quality 2480 ryushare uploaded keep2share

Chinese videos in high definition quality 2480

Good Teen Tube Sexy Young Naked Girls Movies 1427 ryushare uploaded keep2share

Good Teen Tube Sexy Young Naked Girls Movies 1427

Good Teen Tube Sexy Young Naked Girls Movies 224941 ryushare uploaded keep2share

Good Teen Tube Sexy Young Naked Girls Movies 224941

HQ Sex Movies Download 1982 ryushare uploaded keep2share

HQ Sex Movies Download 1982

www xxx hd ht vidoy com 226150 ryushare uploaded keep2share

www xxx hd ht vidoy com 226150

Alexis seduced by neighbour ryushare uploaded keep2share

Alexis seduced by neighbour

Young teens tube hot girls free porn video 1794 ryushare uploaded keep2share

Young teens tube hot girls free porn video 1794

download pc porno movie ryushare uploaded keep2share

download pc porno movie

teenporno mp4 ryushare uploaded keep2share

teenporno mp4

Teen porn xxx 5132 ryushare uploaded keep2share

Teen porn xxx 5132

Teen xxx sex hd 225384 ryushare uploaded keep2share

Teen xxx sex hd 225384

HD Teen Sex Tube 225351 ryushare uploaded keep2share

HD Teen Sex Tube 225351

HD Porn Teen Sex Videos 225821 ryushare uploaded keep2share

HD Porn Teen Sex Videos 225821

Young XXX Tube Videos 2469 ryushare uploaded keep2share

Young XXX Tube Videos 2469

Hot hd teen sex videos 4668 ryushare uploaded keep2share

Hot hd teen sex videos 4668

Teens in Porno young porn videos and free teen sex 5495 ryushare uploaded keep2share

Teens in Porno young porn videos and free teen sex 5495

Girls sex art hd teens videos 225859 ryushare uploaded keep2share

Girls sex art hd teens videos 225859

HD Porn Teen Sex Videos 225413 ryushare uploaded keep2share

HD Porn Teen Sex Videos 225413

Young teens tube hot girls free porn video 1223 ryushare uploaded keep2share

Young teens tube hot girls free porn video 1223

Teen Sex Movies 225608 ryushare uploaded keep2share

Teen Sex Movies 225608

ساريه السواس افلامsexx sexx xxxxxx xxx 226756 ryushare uploaded keep2share

ساريه السواس افلامsexx sexx xxxxxx xxx 226756

Teenies Videos – Teen Porn, Teen Sex, XXX Free Videos 224383 ryushare uploaded keep2share

Teenies Videos – Teen Porn, Teen Sex, XXX Free Videos 224383

Young teens tube hot girls free porn video 2142 ryushare uploaded keep2share

Young teens tube hot girls free porn video 2142

Pretty Little Treasure – BTS ryushare uploaded keep2share

Pretty Little Treasure – BTS

Teen 18 Porn XXX Clips Naked 224758 ryushare uploaded keep2share

Teen 18 Porn XXX Clips Naked 224758

SexArt.com Ivana Sugar & Vanda Lust – Rain ryushare uploaded keep2share

SexArt.com Ivana Sugar & Vanda Lust – Rain

Porno movies young teens lesbian 5061 ryushare uploaded keep2share

Porno movies young teens lesbian 5061

HD porn uploaded 4280 ryushare uploaded keep2share

HD porn uploaded 4280

Alice March – Smooth as Silk ryushare uploaded keep2share

Alice March – Smooth as Silk

Sex with porn model in garaje Orgy Threesome 4772 ryushare uploaded keep2share

Sex with porn model in garaje Orgy Threesome 4772

school porno movies ryushare uploaded keep2share

school porno movies

Jessica – Model Couple on Vacation ryushare uploaded keep2share

Jessica – Model Couple on Vacation

Young xxx 224169 ryushare uploaded keep2share

Young xxx 224169

Report broken links / Post a comment

You must be logged in to post a comment.



General\r\nComplete name : D:HD Teens Tube Download Porn Sex clips movies.xxxCRMPGStsCRMPGSts.wmv\r\nFormat : Windows Media\r\nFile size : 841 MiB\r\nDuration : 24mn 43s\r\nOverall bit rate mode : Constant\r\nOverall bit rate : 4 756 Kbps\r\nMaximum Overall bit rate : 4 774 Kbps\r\nPerformer : Royal-Cash.com\r\nEncoded date : UTC 2011-04-17 09:34:08.837\r\nCopyright : Royal-Cash.com\r\n\r\nVideo\r\nID : 2\r\nFormat : VC-1\r\nFormat profile : [email protected]\r\nCodec ID : WMV3\r\nCodec ID/Info : Windows Media Video 9\r\nCodec ID/Hint : WMV3\r\nDescription of the codec : Windows Media Video 9 - Professional\r\nDuration : 24mn 44s\r\nBit rate mode : Constant\r\nBit rate : 4 608 Kbps\r\nWidth : 1 280 pixels\r\nHeight : 720 pixels\r\nDisplay aspect ratio : 16:9\r\nFrame rate : 25.000 fps\r\nColor space : YUV\r\nChroma subsampling : 4:2:0\r\nBit depth : 8 bits\r\nScan type : Progressive\r\nCompression mode : Lossy\r\nBits/(Pixel*Frame) : 0.200\r\nStream size : 815 MiB (97%)\r\nLanguage : English (US)\r\nNumberOfFrames : 37088\r\n\r\nAudio\r\nID : 1\r\nFormat : WMA\r\nFormat version : Version 2\r\nCodec ID : 161\r\nCodec ID/Info : Windows Media Audio\r\nDescription of the codec : Windows Media Audio 9.1 - 128 kbps, 44 kHz, stereo 1-pass CBR\r\nDuration : 24mn 43s\r\nBit rate mode : Constant\r\nBit rate : 128 Kbps\r\nChannel(s) : 2 channels\r\nSampling rate : 44.1 KHz\r\nBit depth : 16 bits\r\nStream size : 22.6 MiB (3%)\r\nLanguage : English (US)\r\nNumberOfFrames : 3997\r\n\r\n