Hot Teen Sex HD videos 1149

HD Teens Sex Tube Videos XxX 1157Teen Porn XXX Tube 1144

Posted in Amateur, HD Porn, Sex Movies, Teen | 7744 Views |


Rate this girl !!!




\r\n\r\nhttp://img56.imagetwist.com/i/05162/tzdovo6vus3k.jpg\r\n\r\n Link(552 Mb||21:10||1280*720||WMV) \r\n\r\n 



DOWNLOAD

Keep2share.cc - Uploaded.net - Openload.co - Rapidu.net


http://keep2share.cc/file/52efb61ce478c
http://ryushare.com/vzae97j087sl/NBSGRKyr.rar
http://ul.to/wtfdi2uv


Premium here:
uploaded.net
keep2share.cc
rapidu.net.cc


Teens related to Hot Teen Sex HD videos 1149


EuroSexParties Tiana And Beata Undine Time For Playing ryushare uploaded keep2share

EuroSexParties Tiana And Beata Undine Time For Playing

Www hd xvideos download in 225992 ryushare uploaded keep2share

Www hd xvideos download in 225992

Japanese casting –  Harada Airi ryushare uploaded keep2share

Japanese casting – Harada Airi

Free Teen Porn Videos at Teen Sex Tube XXX 3477 ryushare uploaded keep2share

Free Teen Porn Videos at Teen Sex Tube XXX 3477

Caught Up In The Moment – Carmen Fox ryushare uploaded keep2share

Caught Up In The Moment – Carmen Fox

Klixen – K Two Teasing Tongues 12 – B ryushare uploaded keep2share

Klixen – K Two Teasing Tongues 12 – B

Tube xxx 5228 ryushare uploaded keep2share

Tube xxx 5228

HD Teens Sex Tube Videos XxX 3653 ryushare uploaded keep2share

HD Teens Sex Tube Videos XxX 3653

Wow Porn Movies download) 5153 ryushare uploaded keep2share

Wow Porn Movies download) 5153

Free Porn Videos Xxx Movies Pussy Porn 1568 ryushare uploaded keep2share

Free Porn Videos Xxx Movies Pussy Porn 1568

baby hd mp4 deflortioan sex 226670 ryushare uploaded keep2share

baby hd mp4 deflortioan sex 226670

Viktoria Diamond – Sinful Scarlet Mood ryushare uploaded keep2share

Viktoria Diamond – Sinful Scarlet Mood

Nude Teens fucking hard 5025 ryushare uploaded keep2share

Nude Teens fucking hard 5025

High Definition Movies on HD 5364 ryushare uploaded keep2share

High Definition Movies on HD 5364

Young teens tube hot girls free porn video 224172 ryushare uploaded keep2share

Young teens tube hot girls free porn video 224172

Young teens tube hot girls free porn video 5000 ryushare uploaded keep2share

Young teens tube hot girls free porn video 5000

www hd sex xxxcome ryushare uploaded keep2share

www hd sex xxxcome

Xxx videos 360 video size ryushare uploaded keep2share

Xxx videos 360 video size

Hot download sex girls movies 224257 ryushare uploaded keep2share

Hot download sex girls movies 224257

xvideos porn hd videos 226278 ryushare uploaded keep2share

xvideos porn hd videos 226278

ww pink world net ryushare uploaded keep2share

ww pink world net

Small girls and boys porn 4304 ryushare uploaded keep2share

Small girls and boys porn 4304

Www xxx18yaer hd vido com 226552 ryushare uploaded keep2share

Www xxx18yaer hd vido com 226552

HD Porn Video 2499 ryushare uploaded keep2share

HD Porn Video 2499

Young Sex Movies 1335 ryushare uploaded keep2share

Young Sex Movies 1335

Porno movies young teens lesbian 5426 ryushare uploaded keep2share

Porno movies young teens lesbian 5426

HD Porn Teen Sex Videos 2491 ryushare uploaded keep2share

HD Porn Teen Sex Videos 2491

Small girls and boys porn 2683 ryushare uploaded keep2share

Small girls and boys porn 2683

Small girls and boys porn 2528 ryushare uploaded keep2share

Small girls and boys porn 2528

Hot Teen Sex HD videos 224236 ryushare uploaded keep2share

Hot Teen Sex HD videos 224236

xxxvideo s HD com 226265 ryushare uploaded keep2share

xxxvideo s HD com 226265

Teen Tits Tube, Young Girls Porn Videos 1565 ryushare uploaded keep2share

Teen Tits Tube, Young Girls Porn Videos 1565

Teen Sex Videos Big Tits Amateur 4768 ryushare uploaded keep2share

Teen Sex Videos Big Tits Amateur 4768

Wow Girls Porn Clips download 224386 ryushare uploaded keep2share

Wow Girls Porn Clips download 224386

Alyona, Klara & Paloma – Strap-on Adventure ryushare uploaded keep2share

Alyona, Klara & Paloma – Strap-on Adventure

Report broken links / Post a comment

You must be logged in to post a comment.



General\r\nComplete name : D:HD TeenMania Porn Sex videos.xxxNBSGRKyrNBSGRKyr.wmv\r\nFormat : Windows Media\r\nFile size : 552 MiB\r\nDuration : 21mn 10s\r\nOverall bit rate mode : Constant\r\nOverall bit rate : 3 644 Kbps\r\nMaximum Overall bit rate : 3 658 Kbps\r\nEncoded date : UTC 2008-02-07 17:22:59.285\r\nWriting application : TMPGEnc 4.0 XPress Version. 4.2.3.193\r\n\r\nVideo\r\nID : 2\r\nFormat : VC-1\r\nFormat profile : [email protected]\r\nCodec ID : WMV3\r\nCodec ID/Info : Windows Media Video 9\r\nCodec ID/Hint : WMV3\r\nDescription of the codec : Windows Media Video 9 - Professional\r\nDuration : 21mn 10s\r\nBit rate mode : Constant\r\nBit rate : 3 500 Kbps\r\nWidth : 1 280 pixels\r\nHeight : 720 pixels\r\nDisplay aspect ratio : 16:9\r\nFrame rate : 29.970 fps\r\nColor space : YUV\r\nChroma subsampling : 4:2:0\r\nBit depth : 8 bits\r\nScan type : Progressive\r\nCompression mode : Lossy\r\nBits/(Pixel*Frame) : 0.127\r\nStream size : 530 MiB (96%)\r\nLanguage : English (US)\r\n\r\nAudio\r\nID : 1\r\nFormat : WMA\r\nFormat version : Version 2\r\nCodec ID : 161\r\nCodec ID/Info : Windows Media Audio\r\nDescription of the codec : Windows Media Audio 9.1 - 127 kbps, 48 kHz, stereo Low Delay 1-pass CBR\r\nDuration : 21mn 10s\r\nBit rate mode : Constant\r\nBit rate : 127 Kbps\r\nChannel(s) : 2 channels\r\nSampling rate : 48.0 KHz\r\nBit depth : 16 bits\r\nStream size : 19.2 MiB (3%)\r\nLanguage : English (US)\r\n\r\n