Hot Teen Sex 2145

HD Teen Sex Tube 2148Young teens tube hot girls free porn video 2142

Posted in Amateur, HD Porn, Sex Movies, Teen | 7355 Views |


Rate this girl !!!




\r\n\r\n2.jpeg\r\n\r\n Link(629 Mb||20:44||1280*720||WMV)



DOWNLOAD

Keep2share.cc - Uploaded.net - Openload.co - Rapidu.net


http://ryushare.com/ome8vh2ijnb8/MNDGRSfv.wmv
http://ul.to/ykkigpbm/MNDGRSfv.wmv
http://k2s.cc/file/0bb011f7917d6/MNDGRSfv.wmv


Premium here:
uploaded.net
keep2share.cc
rapidu.net.cc


Teens related to Hot Teen Sex 2145


Tube Young Sex 3680 ryushare uploaded keep2share

Tube Young Sex 3680

www ART xvldeocom ryushare uploaded keep2share

www ART xvldeocom

Watch Teen Sex Videos HD 4934 ryushare uploaded keep2share

Watch Teen Sex Videos HD 4934

Brunette bonk ryushare uploaded keep2share

Brunette bonk

I Like Old Dick In My Teeny Ass – Ivana Sugar ryushare uploaded keep2share

I Like Old Dick In My Teeny Ass – Ivana Sugar

Big sax video free download 226079 ryushare uploaded keep2share

Big sax video free download 226079

Sex Teens porn movies 3015 ryushare uploaded keep2share

Sex Teens porn movies 3015

Hot hd teen sex videos 2966 ryushare uploaded keep2share

Hot hd teen sex videos 2966

Young teens tube hot girls free porn video 2828 ryushare uploaded keep2share

Young teens tube hot girls free porn video 2828

Janette – Today Was Amazing ryushare uploaded keep2share

Janette – Today Was Amazing

wow so hot movies hd faapy xxx com ryushare uploaded keep2share

wow so hot movies hd faapy xxx com

High Definition Movies on HD 224782 ryushare uploaded keep2share

High Definition Movies on HD 224782

Naughty Temptress – Capri Anderson ryushare uploaded keep2share

Naughty Temptress – Capri Anderson

High Definition Movies on HD Teen Porn XXX Tube 1192 ryushare uploaded keep2share

High Definition Movies on HD Teen Porn XXX Tube 1192

Young 720p hd porn 3634 ryushare uploaded keep2share

Young 720p hd porn 3634

www xxxsexncon ryushare uploaded keep2share

www xxxsexncon

HQ Sex Movies Download 4625 ryushare uploaded keep2share

HQ Sex Movies Download 4625

Hardcore Sex Hub 3916 ryushare uploaded keep2share

Hardcore Sex Hub 3916

gibitube com porn 226071 ryushare uploaded keep2share

gibitube com porn 226071

Stella Cox – No Panties ryushare uploaded keep2share

Stella Cox – No Panties

fuck from behind 226023 ryushare uploaded keep2share

fuck from behind 226023

Teens in Porno young porn videos and free teen sex 224477 ryushare uploaded keep2share

Teens in Porno young porn videos and free teen sex 224477

www xxx videos dawnload com ryushare uploaded keep2share

www xxx videos dawnload com

Adult Hardcore XXX Sex Videos 225032 ryushare uploaded keep2share

Adult Hardcore XXX Sex Videos 225032

Teen porn movies 2618 ryushare uploaded keep2share

Teen porn movies 2618

pc hd porn xxx video ryushare uploaded keep2share

pc hd porn xxx video

antartika poeno sex 226048 ryushare uploaded keep2share

antartika poeno sex 226048

Teens Sweet orgy ryushare uploaded keep2share

Teens Sweet orgy

Foxy Di – I’m all yours ryushare uploaded keep2share

Foxy Di – I’m all yours

Hot Teen Sex 225853 ryushare uploaded keep2share

Hot Teen Sex 225853

Sara Luvv – Dorm Room Invitation ryushare uploaded keep2share

Sara Luvv – Dorm Room Invitation

Hd young videos 224121 ryushare uploaded keep2share

Hd young videos 224121

xxx video sex porno 226546 ryushare uploaded keep2share

xxx video sex porno 226546

Hot Teen Sex 3611 ryushare uploaded keep2share

Hot Teen Sex 3611

Hd young videos 3757 ryushare uploaded keep2share

Hd young videos 3757

Report broken links / Post a comment

You must be logged in to post a comment.



General\r\nComplete name : D:HD Teens Download Porn Sex clips movies TubeMNDGRSfv.wmv\r\nFormat : Windows Media\r\nFile size : 629 MiB\r\nDuration : 20mn 44s\r\nOverall bit rate mode : Constant\r\nOverall bit rate : 4 240 Kbps\r\nMaximum Overall bit rate : 4 258 Kbps\r\nEncoded date : UTC 2010-02-24 14:26:50.843\r\n\r\nVideo\r\nID : 2\r\nFormat : VC-1\r\nFormat profile : [email protected]\r\nCodec ID : WMV3\r\nCodec ID/Info : Windows Media Video 9\r\nCodec ID/Hint : WMV3\r\nDescription of the codec : Windows Media Video 9 - Professional\r\nDuration : 20mn 44s\r\nBit rate mode : Constant\r\nBit rate : 4 096 Kbps\r\nWidth : 1 280 pixels\r\nHeight : 720 pixels\r\nDisplay aspect ratio : 16:9\r\nFrame rate : 25.000 fps\r\nColor space : YUV\r\nChroma subsampling : 4:2:0\r\nBit depth : 8 bits\r\nScan type : Progressive\r\nCompression mode : Lossy\r\nBits/(Pixel*Frame) : 0.178\r\nStream size : 608 MiB (97%)\r\nLanguage : Russian\r\nNumberOfFrames : 31104\r\n\r\nAudio\r\nID : 1\r\nFormat : WMA\r\nFormat version : Version 2\r\nCodec ID : 161\r\nCodec ID/Info : Windows Media Audio\r\nDescription of the codec : Windows Media Audio 9.2 - 128 kbps, 44 kHz, stereo 1-pass CBR\r\nDuration : 20mn 44s\r\nBit rate mode : Constant\r\nBit rate : 128 Kbps\r\nChannel(s) : 2 channels\r\nSampling rate : 44.1 KHz\r\nBit depth : 16 bits\r\nStream size : 19.0 MiB (3%)\r\nLanguage : Russian\r\nNumberOfFrames : 3352\r\n\r\n