Hot hd teen sex videos 3484

Veronica Radke Tube Young Sex 3483Hd quality - Teen sex video 3481

Posted in HD Porn, Sex Movies, Teen, Threesome | 14255 Views |


Rate this girl !!!




Betty and Erica Threesome Teens\r\n\r\nBetty and Erica Threesome Teens\r\n\r\nBetty and Erica Threesome Teens\r\n\r\nFile: Betty and Erica Threesome Teens.mp4\r\nSize: 498591766 bytes (475.49 MiB), duration: 00:24:28, avg.bitrate: 2717 kb/s\r\nAudio: aac, 44100 Hz, stereo, s16, 160 kb/s (und)\r\nVideo: h264, yuv420p, 1920×1080, 2550 kb/s, 23.98 fps(r) (und)



DOWNLOAD

Keep2share.cc - Uploaded.net - Openload.co - Rapidu.net


http://fileom.com/esn737ruhc82/B3t.Er1c4.rar.html
http://k2s.cc/file/b13e1e8edf3c4/B3t.Er1c4.rar
http://ryushare.com/lowwoz3b7yu1/B3t.Er1c4.rar
http://ul.to/upa9avin/B3t.Er1c4.rar


Premium here:
uploaded.net
keep2share.cc
rapidu.net.cc

Teens related to Hot hd teen sex videos 3484


new porn video pc hd download ryushare uploaded keep2share

new porn video pc hd download

www scool xxx com 226417 ryushare uploaded keep2share

www scool xxx com 226417

download hd fucking video full 226558 ryushare uploaded keep2share

download hd fucking video full 226558

Katarinka – Russian Teen – Pack 45 clips ryushare uploaded keep2share

Katarinka – Russian Teen – Pack 45 clips

Girls do porn in HD 225551 ryushare uploaded keep2share

Girls do porn in HD 225551

HD Porn Teen Sex Videos 224669 ryushare uploaded keep2share

HD Porn Teen Sex Videos 224669

Porn party teen girls 224921 ryushare uploaded keep2share

Porn party teen girls 224921

Free High Quality Sex Movies 3731 ryushare uploaded keep2share

Free High Quality Sex Movies 3731

Porno lesbian young teens movies 4570 ryushare uploaded keep2share

Porno lesbian young teens movies 4570

Teen Sex Porn Videos Free Nude Teens 224697 ryushare uploaded keep2share

Teen Sex Porn Videos Free Nude Teens 224697

Clubseventeen 507 Mb 226566 ryushare uploaded keep2share

Clubseventeen 507 Mb 226566

Sweet Teen Porn – Young Porn Videos 224912 ryushare uploaded keep2share

Sweet Teen Porn – Young Porn Videos 224912

The best Teen sex 6196 ryushare uploaded keep2share

The best Teen sex 6196

sexHD videos mkv ryushare uploaded keep2share

sexHD videos mkv

Teen Sex Videos Tube Movies 1740 ryushare uploaded keep2share

Teen Sex Videos Tube Movies 1740

Www sexy videos shart mb com 226066 ryushare uploaded keep2share

Www sexy videos shart mb com 226066

Jenna Sativa Rebecca-Volpetti-GANGBANG ryushare uploaded keep2share

Jenna Sativa Rebecca-Volpetti-GANGBANG

hd xxx teens virgintiy videos free download 226703 ryushare uploaded keep2share

hd xxx teens virgintiy videos free download 226703

Amateur Teen Sex 4995 ryushare uploaded keep2share

Amateur Teen Sex 4995

Teen xxx sex hd 225800 ryushare uploaded keep2share

Teen xxx sex hd 225800

Free Teen Porn Videos at Teen Sex Tube XXX 3711 ryushare uploaded keep2share

Free Teen Porn Videos at Teen Sex Tube XXX 3711

russia hd movies porno 226214 ryushare uploaded keep2share

russia hd movies porno 226214

Tube Young Sex 5078 ryushare uploaded keep2share

Tube Young Sex 5078

Young Sex Movies 5695 ryushare uploaded keep2share

Young Sex Movies 5695

Irina hot teen ryushare uploaded keep2share

Irina hot teen

www hd bf sexy videos ryushare uploaded keep2share

www hd bf sexy videos

Remy’s Edging Orgasm Control ryushare uploaded keep2share

Remy’s Edging Orgasm Control

Porn HD Sex HD Teen Sex 1200 ryushare uploaded keep2share

Porn HD Sex HD Teen Sex 1200

hd hq bf xxx sex downliad ryushare uploaded keep2share

hd hq bf xxx sex downliad

21Naturals.com Ashley ryushare uploaded keep2share

21Naturals.com Ashley

Angela & Lindsey A Threesome Date ryushare uploaded keep2share

Angela & Lindsey A Threesome Date

Hardcore sex videos in the high definition quality 1804 ryushare uploaded keep2share

Hardcore sex videos in the high definition quality 1804

August Ames – Work It Out ryushare uploaded keep2share

August Ames – Work It Out

Young xxx 224554 ryushare uploaded keep2share

Young xxx 224554

Teen Sex Videos Tube Movies 2090 ryushare uploaded keep2share

Teen Sex Videos Tube Movies 2090

Report broken links / Post a comment

You must be logged in to post a comment.



General\r\nComplete name : H:HD TEENS PORN RYUSHARE UPLOADED KEEP2SHAREBetty and Erica Threesome Teens.mp4\r\nFormat : MPEG-4\r\nFormat profile : Base Media\r\nCodec ID : isom\r\nFile size : 475 MiB\r\nDuration : 24mn 28s\r\nOverall bit rate : 2 716 Kbps\r\nWriting application : Lavf55.12.102\r\n\r\nVideo\r\nID : 1\r\nFormat : AVC\r\nFormat/Info : Advanced Video Codec\r\nFormat profile : [email protected]\r\nFormat settings, CABAC : Yes\r\nFormat settings, ReFrames : 5 frames\r\nCodec ID : avc1\r\nCodec ID/Info : Advanced Video Coding\r\nDuration : 24mn 28s\r\nSource duration : 2mn 59s\r\nBit rate mode : Variable\r\nBit rate : 2 550 Kbps\r\nWidth : 1 920 pixels\r\nHeight : 1 080 pixels\r\nDisplay aspect ratio : 16:9\r\nFrame rate mode : Constant\r\nFrame rate : 23.976 fps\r\nColor space : YUV\r\nChroma subsampling : 4:2:0\r\nBit depth : 8 bits\r\nScan type : Progressive\r\nBits/(Pixel*Frame) : 0.051\r\nStream size : 446 MiB (94%)\r\nSource stream size : 446 MiB (94%)\r\nWriting library : x264 core 133 r2334 a3ac64b\r\nEncoding settings : cabac=1 / ref=5 / deblock=1:0:0 / analyse=0x3:0x113 / me=umh / subme=8 / psy=1 / psy_rd=1.00:0.00 / mixed_ref=1 / me_range=16 / chroma_me=1 / trellis=1 / 8x8dct=1 / cqm=0 / deadzone=21,11 / fast_pskip=1 / chroma_qp_offset=0 / threads=6 / lookahead_threads=1 / sliced_threads=0 / nr=0 / decimate=1 / interlaced=0 / bluray_compat=0 / constrained_intra=0 / bframes=3 / b_pyramid=2 / b_adapt=2 / b_bias=0 / direct=3 / weightb=1 / open_gop=0 / weightp=2 / keyint=150 / keyint_min=15 / scenecut=40 / intra_refresh=0 / rc_lookahead=50 / rc=crf / mbtree=1 / crf=22.0 / qcomp=0.60 / qpmin=0 / qpmax=69 / qpstep=4 / vbv_maxrate=9000 / vbv_bufsize=9000 / crf_max=0.0 / nal_hrd=none / ip_ratio=1.40 / aq=1:1.00\r\nmdhd_Duration : 1468382\r\n\r\nAudio\r\nID : 2\r\nFormat : AAC\r\nFormat/Info : Advanced Audio Codec\r\nFormat profile : LC\r\nCodec ID : 40\r\nDuration : 24mn 28s\r\nDuration_LastFrame : -10ms\r\nBit rate mode : Constant\r\nBit rate : 160 Kbps\r\nChannel(s) : 2 channels\r\nChannel positions : Front: L R\r\nSampling rate : 44.1 KHz\r\nCompression mode : Lossy\r\nStream size : 28.0 MiB (6%)