High Definition Movies on HD Teen Porn XXX Tube 1192

Teen porn movies 1195Hd quality - Teen sex video 1189

Posted in Amateur, HD Porn, Sex Movies, Teen | 7557 Views |


Rate this girl !!!




\r\n\r\nhttp://img56.imagetwist.com/i/05164/nyazadttq24q.jpeg\r\n\r\n Link(559 Mb||23:39||1280*720||MP4)



DOWNLOAD

Keep2share.cc - Uploaded.net - Openload.co - Rapidu.net


http://ul.to/7osi2zqa
http://ryushare.com/6ax8hgp7s95g/YNGBSNfs.rar
http://keep2share.cc/file/52efa5b993f48


Premium here:
uploaded.net
keep2share.cc
rapidu.net.cc


Teens related to High Definition Movies on HD Teen Porn XXX Tube 1192


Bella Baby 2013 – Facial Double Blowjob Cumshot ryushare uploaded keep2share

Bella Baby 2013 – Facial Double Blowjob Cumshot

Teen Tits Tube, Young Girls Porn Videos 225601 ryushare uploaded keep2share

Teen Tits Tube, Young Girls Porn Videos 225601

Porno movies young teens lesbian 224059 ryushare uploaded keep2share

Porno movies young teens lesbian 224059

Young xxx 225572 ryushare uploaded keep2share

Young xxx 225572

www full hd xxx sexy movie 226625 ryushare uploaded keep2share

www full hd xxx sexy movie 226625

Anjelica – One Love… One Life ryushare uploaded keep2share

Anjelica – One Love… One Life

world hd sex clips 226188 ryushare uploaded keep2share

world hd sex clips 226188

Teen porn movies 2225 ryushare uploaded keep2share

Teen porn movies 2225

Teen xxx sex hd 224369 ryushare uploaded keep2share

Teen xxx sex hd 224369

Yulia – Wild Anal Slut Owned In The Forest ryushare uploaded keep2share

Yulia – Wild Anal Slut Owned In The Forest

Sweet Teen Porn – Young Porn Videos 1653 ryushare uploaded keep2share

Sweet Teen Porn – Young Porn Videos 1653

porn HD anfisa argentina ryushare uploaded keep2share

porn HD anfisa argentina

free download sovjetmassage com 226506 ryushare uploaded keep2share

free download sovjetmassage com 226506

Teen xxx sex hd 224286 ryushare uploaded keep2share

Teen xxx sex hd 224286

I Love Young Girls 3 ryushare uploaded keep2share

I Love Young Girls 3

HD Teens Sex Tube Videos XxX 5397 ryushare uploaded keep2share

HD Teens Sex Tube Videos XxX 5397

Kiara Lord – Window ryushare uploaded keep2share

Kiara Lord – Window

HD Porn Teen Sex Videos 4043 ryushare uploaded keep2share

HD Porn Teen Sex Videos 4043

Wow porn hd downloads 224645 ryushare uploaded keep2share

Wow porn hd downloads 224645

Teeny Tini Striptease ryushare uploaded keep2share

Teeny Tini Striptease

xxxhqvideo dld ryushare uploaded keep2share

xxxhqvideo dld

HD Porn Teen Sex Videos 2786 ryushare uploaded keep2share

HD Porn Teen Sex Videos 2786

Alysa Gap & Beata Undine – Bounty Of Meat ryushare uploaded keep2share

Alysa Gap & Beata Undine – Bounty Of Meat

http is gd real xgrls hot video 226544 ryushare uploaded keep2share

http is gd real xgrls hot video 226544

Who Let The Dogs Out? – WowGirls ryushare uploaded keep2share

Who Let The Dogs Out? – WowGirls

Hot Teen Sex HD videos 225047 ryushare uploaded keep2share

Hot Teen Sex HD videos 225047

Fucking a RedHair Sexy teen amateur ryushare uploaded keep2share

Fucking a RedHair Sexy teen amateur

High Definition Movies on HD 1766 ryushare uploaded keep2share

High Definition Movies on HD 1766

Hot Teen Sex HD videos 224860 ryushare uploaded keep2share

Hot Teen Sex HD videos 224860

Teen Porn XXX Tube 225059 ryushare uploaded keep2share

Teen Porn XXX Tube 225059

Monroe – Sweet And Tender ryushare uploaded keep2share

Monroe – Sweet And Tender

Teen Sex Videos Tube Movies 4086 ryushare uploaded keep2share

Teen Sex Videos Tube Movies 4086

HD sex movies downloads 2913 ryushare uploaded keep2share

HD sex movies downloads 2913

xxx fuking teens pics 2014 ryushare uploaded keep2share

xxx fuking teens pics 2014

Tube Young Sex 224974 ryushare uploaded keep2share

Tube Young Sex 224974

Report broken links / Post a comment

You must be logged in to post a comment.



General\r\nComplete name : D:HD TeenMania Porn Sex videosxxxYNGBSNfsYNGBSNfs.mp4\r\nFormat : Flash Video\r\nFile size : 559 MiB\r\nDuration : 23mn 39s\r\nOverall bit rate : 3 303 Kbps\r\nTagged date : UTC 2013-10-23 09:06:08\r\nTagging application : inlet media FLVTool2 v1.0.6 - http://inlet-media.de/flvtool2\r\n\r\nVideo\r\nFormat : VP6\r\nCodec ID : 4\r\nDuration : 23mn 39s\r\nBit rate : 3 135 Kbps\r\nWidth : 1 280 pixels\r\nHeight : 720 pixels\r\nDisplay aspect ratio : 16:9\r\nFrame rate mode : Constant\r\nFrame rate : 25.000 fps\r\nBit depth : 8 bits\r\nBits/(Pixel*Frame) : 0.136\r\nStream size : 531 MiB (95%)\r\n\r\nAudio\r\nFormat : MPEG Audio\r\nFormat version : Version 1\r\nFormat profile : Layer 3\r\nCodec ID : 2\r\nCodec ID/Hint : MP3\r\nDuration : 23mn 39s\r\nBit rate mode : Constant\r\nBit rate : 160 Kbps\r\nChannel(s) : 2 channels\r\nSampling rate : 44.1 KHz\r\nCompression mode : Lossy\r\nStream size : 27.7 MiB (5%)\r\n\r\n