High Definition Movies on HD 1754

Teen Sex Videos Tube Movies 17598 Teen XXX - Teen Sex 1751

Posted in Amateur, HD Porn, Sex Movies, Teen | 6935 Views |


Rate this girl !!!




\r\n\r\n\r\n\r\nhttp://img102.imagetwist.com/i/05265/y3lbgj8magjp.jpg\r\n\r\n Link(401 Mb||24:44||720*528||WMV)



DOWNLOAD

Keep2share.cc - Uploaded.net - Openload.co - Rapidu.net


http://keep2share.cc/file/dbe55e08eb2a4
http://ryushare.com/zzcqz4epq1mi/CNMGSHyl.rar
http://ul.to/088uj8yh


Premium here:
uploaded.net
keep2share.cc
rapidu.net.cc


Teens related to High Definition Movies on HD 1754


hq 18x video com 226250 ryushare uploaded keep2share

hq 18x video com 226250

Teen 18 Porn XXX Clips Naked 224758 ryushare uploaded keep2share

Teen 18 Porn XXX Clips Naked 224758

Porno movies young teens lesbian 5061 ryushare uploaded keep2share

Porno movies young teens lesbian 5061

Julie Vee – Hardcore ryushare uploaded keep2share

Julie Vee – Hardcore

very low size hd porn videos ryushare uploaded keep2share

very low size hd porn videos

www HD fuck vido 226084 ryushare uploaded keep2share

www HD fuck vido 226084

Jasmine Caro – All day long ryushare uploaded keep2share

Jasmine Caro – All day long

Teen Tits Tube, Young Girls Porn Videos 225601 ryushare uploaded keep2share

Teen Tits Tube, Young Girls Porn Videos 225601

Maria Pie And Nomi – Melting Like Butter ryushare uploaded keep2share

Maria Pie And Nomi – Melting Like Butter

College Teen Sex 224407 ryushare uploaded keep2share

College Teen Sex 224407

download pc porno movie ryushare uploaded keep2share

download pc porno movie

Nikita – Craving For Sex. R E D ryushare uploaded keep2share

Nikita – Craving For Sex. R E D

Teen Porn XXX Tube 225930 ryushare uploaded keep2share

Teen Porn XXX Tube 225930

HD Teens Sex Tube Videos XxX 223790 ryushare uploaded keep2share

HD Teens Sex Tube Videos XxX 223790

HD sex movies downloads 3812 ryushare uploaded keep2share

HD sex movies downloads 3812

Free Teen Porn Videos at Teen Sex Tube XXX 224161 ryushare uploaded keep2share

Free Teen Porn Videos at Teen Sex Tube XXX 224161

Teen Sex Movies Young Porn Tube Vids 5394 ryushare uploaded keep2share

Teen Sex Movies Young Porn Tube Vids 5394

www hdfuckvidoes com ryushare uploaded keep2share

www hdfuckvidoes com

Teen porn movies 1460 ryushare uploaded keep2share

Teen porn movies 1460

www 18porn com/hot hd video 226736 ryushare uploaded keep2share

www 18porn com/hot hd video 226736

Teen Sex Movies Young Porn Tube Vids 2930 ryushare uploaded keep2share

Teen Sex Movies Young Porn Tube Vids 2930

First time Sexual Films 18 sex xxx 1576 ryushare uploaded keep2share

First time Sexual Films 18 sex xxx 1576

Taissia Shanti – Delicate ryushare uploaded keep2share

Taissia Shanti – Delicate

Free Teen Porn Videos at Teen Sex Tube XXX 224787 ryushare uploaded keep2share

Free Teen Porn Videos at Teen Sex Tube XXX 224787

download direct short video of intercourse ryushare uploaded keep2share

download direct short video of intercourse

me bbxxxhd 226343 ryushare uploaded keep2share

me bbxxxhd 226343

Wow Girls Porn Clips download 224524 ryushare uploaded keep2share

Wow Girls Porn Clips download 224524

Hd young videos 2754 ryushare uploaded keep2share

Hd young videos 2754

Sweet Teen Porn – Young Porn Videos 3539 ryushare uploaded keep2share

Sweet Teen Porn – Young Porn Videos 3539

Wow Girls Porn Clips download 223967 ryushare uploaded keep2share

Wow Girls Porn Clips download 223967

poran sacool 226118 ryushare uploaded keep2share

poran sacool 226118

Teen porn movies 225949 ryushare uploaded keep2share

Teen porn movies 225949

Viola Paige – Intense Feelings ryushare uploaded keep2share

Viola Paige – Intense Feelings

Eva, Alberta, Niona, Nora – Sex party ryushare uploaded keep2share

Eva, Alberta, Niona, Nora – Sex party

Super hot teens fuck swim pool ryushare uploaded keep2share

Super hot teens fuck swim pool

Report broken links / Post a comment

You must be logged in to post a comment.



General\r\nComplete name : D:HD Teens Download Porn Sex clips movies Tube.xxxCNMGSHylCNMGSHyl.wmv\r\nFormat : Windows Media\r\nFile size : 401 MiB\r\nDuration : 24mn 44s\r\nOverall bit rate mode : Constant\r\nOverall bit rate : 2 263 Kbps\r\nMaximum Overall bit rate : 2 275 Kbps\r\nEncoded date : UTC 2008-04-26 13:23:26.453\r\nSfOriginalFPS : 250000\r\n\r\nVideo\r\nID : 2\r\nFormat : VC-1\r\nFormat profile : [email protected]\r\nCodec ID : WMV3\r\nCodec ID/Info : Windows Media Video 9\r\nCodec ID/Hint : WMV3\r\nDescription of the codec : Windows Media Video 9 - Professional\r\nDuration : 24mn 44s\r\nBit rate mode : Constant\r\nBit rate : 2 238 Kbps\r\nWidth : 720 pixels\r\nHeight : 528 pixels\r\nDisplay aspect ratio : 4:3\r\nFrame rate : 25.000 fps\r\nColor space : YUV\r\nChroma subsampling : 4:2:0\r\nBit depth : 8 bits\r\nScan type : Progressive\r\nCompression mode : Lossy\r\nBits/(Pixel*Frame) : 0.236\r\nStream size : 396 MiB (99%)\r\nLanguage : Russian\r\n\r\nAudio\r\nID : 1\r\nFormat : WMA\r\nFormat version : Version 2\r\nCodec ID : 161\r\nCodec ID/Info : Windows Media Audio\r\nDescription of the codec : Windows Media Audio 9.2 - 16 kbps, 22 kHz, mono (A/V) 1-pass CBR\r\nDuration : 24mn 44s\r\nBit rate mode : Constant\r\nBit rate : 16.0 Kbps\r\nChannel(s) : 1 channel\r\nSampling rate : 22.05 KHz\r\nBit depth : 16 bits\r\nStream size : 2.84 MiB (1%)\r\nLanguage : Russian\r\n\r\n