High Definition Movies on HD 1683

High Definition Movies on HD Teen Porn XXX Tube 1687Hot Teen Sex HD videos 1679

Posted in Amateur, HD Porn, Sex Movies, Teen | 11341 Views |


Rate this girl !!!




\r\n\r\n\r\nhttp://img102.imagetwist.com/i/05255/xqe3ias8dysy.jpg\r\n\r\n Link(835 Mb||27:41||1280*720||WMV)



DOWNLOAD

Keep2share.cc - Uploaded.net - Openload.co - Rapidu.net


http://ryushare.com/lqx1m7d9scpl/FSNGRSHly.rar
http://ul.to/4ovo9rjm
http://keep2share.cc/file/d55c27e77c417


Premium here:
uploaded.net
keep2share.cc
rapidu.net.cc


Teens related to High Definition Movies on HD 1683


Girls do porn downloads 4056 ryushare uploaded keep2share

Girls do porn downloads 4056

hot first time xxxvedio download Co com 226230 ryushare uploaded keep2share

hot first time xxxvedio download Co com 226230

Porn massage young brunette ryushare uploaded keep2share

Porn massage young brunette

TeenBFF.com Maci Winslett & Alex Tanner – Posing for Cum ryushare uploaded keep2share

TeenBFF.com Maci Winslett & Alex Tanner – Posing for Cum

Porn party teen girls 225342 ryushare uploaded keep2share

Porn party teen girls 225342

Hot hd teen sex videos 3912 ryushare uploaded keep2share

Hot hd teen sex videos 3912

xxx sex hd video mp4 226455 ryushare uploaded keep2share

xxx sex hd video mp4 226455

1280×920 hd porn movie 226498 ryushare uploaded keep2share

1280×920 hd porn movie 226498

porn pinkworld hd ryushare uploaded keep2share

porn pinkworld hd

Teen Tits Tube, Young Girls Porn Videos 3672 ryushare uploaded keep2share

Teen Tits Tube, Young Girls Porn Videos 3672

WebYoung.com Sammie Daniels, Samantha Rone ryushare uploaded keep2share

WebYoung.com Sammie Daniels, Samantha Rone

HD Teens Sex Tube Videos XxX 223790 ryushare uploaded keep2share

HD Teens Sex Tube Videos XxX 223790

Teen sex xxx hd 2606 ryushare uploaded keep2share

Teen sex xxx hd 2606

Hardcore sex videos in the high definition quality 1804 ryushare uploaded keep2share

Hardcore sex videos in the high definition quality 1804

hd vergin porn star image 226196 ryushare uploaded keep2share

hd vergin porn star image 226196

Porn party teen girls 225425 ryushare uploaded keep2share

Porn party teen girls 225425

Hot sex girls movies download 4514 ryushare uploaded keep2share

Hot sex girls movies download 4514

Hot hd teen sex videos 4751 ryushare uploaded keep2share

Hot hd teen sex videos 4751

Young Virgin Pussy Teen Fuck Tube 224676 ryushare uploaded keep2share

Young Virgin Pussy Teen Fuck Tube 224676

Nude Teens fucking hard 2774 ryushare uploaded keep2share

Nude Teens fucking hard 2774

school porno movies ryushare uploaded keep2share

school porno movies

Hot Teen Sex HD videos 223872 ryushare uploaded keep2share

Hot Teen Sex HD videos 223872

J. Joanna – Slam It Harder ryushare uploaded keep2share

J. Joanna – Slam It Harder

Young legal porn clips 4698 ryushare uploaded keep2share

Young legal porn clips 4698

www full sex xxx move com ryushare uploaded keep2share

www full sex xxx move com

Jassie Gold – Hardcore Fucking ryushare uploaded keep2share

Jassie Gold – Hardcore Fucking

Teen Sex Movies 2122 ryushare uploaded keep2share

Teen Sex Movies 2122

HD Teen Sex Tube 1451 ryushare uploaded keep2share

HD Teen Sex Tube 1451

Teen porn movies 3457 ryushare uploaded keep2share

Teen porn movies 3457

Passion-HD Lily Ariana 1080 ryushare uploaded keep2share

Passion-HD Lily Ariana 1080

HD Teens Sex Tube Videos XxX 225747 ryushare uploaded keep2share

HD Teens Sex Tube Videos XxX 225747

Small girls and boys porn 4639 ryushare uploaded keep2share

Small girls and boys porn 4639

HD Sex World Videos High Definition Free Porn 225951 ryushare uploaded keep2share

HD Sex World Videos High Definition Free Porn 225951

Teen 18 Porn XXX Clips Naked 3589 ryushare uploaded keep2share

Teen 18 Porn XXX Clips Naked 3589

Connie – More Than I Could Wish Forpic ryushare uploaded keep2share

Connie – More Than I Could Wish Forpic

Report broken links / Post a comment

You must be logged in to post a comment.



General\r\nComplete name : D:Download free porn teens movies clipsFSNGRSHlyFSNGRSHly.wmv\r\nFormat : Windows Media\r\nFile size : 835 MiB\r\nDuration : 27mn 41s\r\nOverall bit rate mode : Constant\r\nOverall bit rate : 4 214 Kbps\r\nMaximum Overall bit rate : 4 229 Kbps\r\nEncoded date : UTC 2009-03-31 07:36:52.236\r\nSfOriginalFPS : 299700\r\n\r\nVideo\r\nID : 2\r\nFormat : VC-1\r\nFormat profile : [email protected]\r\nCodec ID : WMV3\r\nCodec ID/Info : Windows Media Video 9\r\nCodec ID/Hint : WMV3\r\nDescription of the codec : Windows Media Video 9 - Professional\r\nDuration : 27mn 41s\r\nBit rate mode : Constant\r\nBit rate : 4 002 Kbps\r\nWidth : 1 280 pixels\r\nHeight : 720 pixels\r\nDisplay aspect ratio : 16:9\r\nFrame rate : 29.970 fps\r\nColor space : YUV\r\nChroma subsampling : 4:2:0\r\nBit depth : 8 bits\r\nScan type : Progressive\r\nCompression mode : Lossy\r\nBits/(Pixel*Frame) : 0.145\r\nStream size : 793 MiB (95%)\r\nLanguage : Russian\r\n\r\nAudio\r\nID : 1\r\nFormat : WMA\r\nFormat version : Version 2\r\nCodec ID : 161\r\nCodec ID/Info : Windows Media Audio\r\nDescription of the codec : Windows Media Audio 9.2 - 192 kbps, 48 kHz, stereo (A/V) 1-pass CBR\r\nDuration : 27mn 41s\r\nBit rate mode : Constant\r\nBit rate : 192 Kbps\r\nChannel(s) : 2 channels\r\nSampling rate : 48.0 KHz\r\nBit depth : 16 bits\r\nStream size : 38.0 MiB (5%)\r\nLanguage : Russian\r\n\r\n