Hd young videos 3757

Uploaded net porn 3760Teen 18 Porn XXX Clips Naked 3747

Posted in HD Porn, Pornstar, Sex Movies, Teen, Threesome | 7247 Views |


Rate this girl !!!




cover\r\n\r\nhttp://i64.fastpic.ru/big/2014/0515/2a/f44c7d4f5927b2ed246432dc4f45182a.jpg



DOWNLOAD

Keep2share.cc - Uploaded.net - Openload.co - Rapidu.net


http://ryushare.com/i85kxtzlsvqm/Tw.o_G.irls_Me.ans_Dou.ble_The_Fun_H.D10.80.mp4
http://fileom.com/6preicqj4ar0/Tw.o_G.irls_Me.ans_Dou.ble_The_Fun_H.D10.80.mp4.html
http://ul.to/1bzu1s4y/Tw.o_G.irls_Me.ans_Dou.ble_The_Fun_H.D10.80.mp4
http://k2s.cc/file/696f99733ebd1/Tw.o_G.irls_Me.ans_Dou.ble_The_Fun_H.D10.80.mp4


Premium here:
uploaded.net
keep2share.cc
rapidu.net.cc


Teens related to Hd young videos 3757


Katerina Kay – No One Will See It Right? ryushare uploaded keep2share

Katerina Kay – No One Will See It Right?

Wow Porn Movies download) 224242 ryushare uploaded keep2share

Wow Porn Movies download) 224242

Wow porn hd downloads 224041 ryushare uploaded keep2share

Wow porn hd downloads 224041

Teen porn movies 224770 ryushare uploaded keep2share

Teen porn movies 224770

wow grils ryushare uploaded keep2share

wow grils

Young XXX Tube Videos 3564 ryushare uploaded keep2share

Young XXX Tube Videos 3564

Teen porn xxx 224836 ryushare uploaded keep2share

Teen porn xxx 224836

pornstar young pornstar 226548 ryushare uploaded keep2share

pornstar young pornstar 226548

HD Teen Sex Tube 1346 ryushare uploaded keep2share

HD Teen Sex Tube 1346

Teen Sex Movies Young Porn Tube Vids 224709 ryushare uploaded keep2share

Teen Sex Movies Young Porn Tube Vids 224709

Hot Teen Sex HD videos 1930 ryushare uploaded keep2share

Hot Teen Sex HD videos 1930

HD Teens Sex Tube Videos XxX 5400 ryushare uploaded keep2share

HD Teens Sex Tube Videos XxX 5400

bigbobs hd sex videos dawonlode ryushare uploaded keep2share

bigbobs hd sex videos dawonlode

ClubSeventeen.com SiteRip – Part 3 ryushare uploaded keep2share

ClubSeventeen.com SiteRip – Part 3

www xxx hb movi 226762 ryushare uploaded keep2share

www xxx hb movi 226762

Nude Teens fucking hard 224248 ryushare uploaded keep2share

Nude Teens fucking hard 224248

In Hd quality xxx video for download 226652 ryushare uploaded keep2share

In Hd quality xxx video for download 226652

College Teen Sex 224407 ryushare uploaded keep2share

College Teen Sex 224407

College Teen Sex 5112 ryushare uploaded keep2share

College Teen Sex 5112

18xGirls Fucked Virgin teen ryushare uploaded keep2share

18xGirls Fucked Virgin teen

Free Porn Videos Xxx Movies Pussy Porn 225269 ryushare uploaded keep2share

Free Porn Videos Xxx Movies Pussy Porn 225269

Porno lesbian young teens movies 4248 ryushare uploaded keep2share

Porno lesbian young teens movies 4248

Free Porn Videos Xxx Movies Pussy Porn 3183 ryushare uploaded keep2share

Free Porn Videos Xxx Movies Pussy Porn 3183

Good Teen Tube Sexy Young Naked Girls Movies 225497 ryushare uploaded keep2share

Good Teen Tube Sexy Young Naked Girls Movies 225497

www hd xxx vadio ryushare uploaded keep2share

www hd xxx vadio

HD Teens Sex Tube Videos XxX 224988 ryushare uploaded keep2share

HD Teens Sex Tube Videos XxX 224988

Teens in Porno young porn videos and free teen sex 4470 ryushare uploaded keep2share

Teens in Porno young porn videos and free teen sex 4470

blowjob craving lips 226579 ryushare uploaded keep2share

blowjob craving lips 226579

sex videos of 4 MB to download 226246 ryushare uploaded keep2share

sex videos of 4 MB to download 226246

Teen Sex Videos Tube Movies 225137 ryushare uploaded keep2share

Teen Sex Videos Tube Movies 225137

Watch Teen Sex Videos HD 2098 ryushare uploaded keep2share

Watch Teen Sex Videos HD 2098

Teen 18 Porn XXX Clips Naked 2084 ryushare uploaded keep2share

Teen 18 Porn XXX Clips Naked 2084

HD Porn Teen Sex Videos 225563 ryushare uploaded keep2share

HD Porn Teen Sex Videos 225563

Teen Porn XXX Tube 224586 ryushare uploaded keep2share

Teen Porn XXX Tube 224586

Adult Hardcore XXX Sex Videos 4188 ryushare uploaded keep2share

Adult Hardcore XXX Sex Videos 4188

Report broken links / Post a comment

You must be logged in to post a comment.



General\r\nComplete name : D:hd pornstars teens ryushare.com uploaded.net keep2share.cc fileom.com streamcloud.eu allmyvideos.net ul.to download porn movies clips Tw.o_G.irls_Me.ans_Dou.ble_The_Fun_H.D10.80.mp4\r\nFormat : MPEG-4\r\nFormat profile : Base Media\r\nCodec ID : isom\r\nFile size : 1.69 GiB\r\nDuration : 25mn 32s\r\nOverall bit rate mode : Variable\r\nOverall bit rate : 9 470 Kbps\r\nEncoded date : UTC 1970-01-01 00:00:00\r\nTagged date : UTC 1970-01-01 00:00:00\r\nWriting application : Lavf52.64.2\r\n\r\nVideo\r\nID : 1\r\nFormat : AVC\r\nFormat/Info : Advanced Video Codec\r\nFormat profile : [email protected]\r\nFormat settings, CABAC : Yes\r\nFormat settings, ReFrames : 2 frames\r\nCodec ID : avc1\r\nCodec ID/Info : Advanced Video Coding\r\nDuration : 25mn 32s\r\nBit rate : 9 314 Kbps\r\nWidth : 1 920 pixels\r\nHeight : 1 080 pixels\r\nDisplay aspect ratio : 16:9\r\nFrame rate mode : Constant\r\nFrame rate : 29.970 fps\r\nColor space : YUV\r\nChroma subsampling : 4:2:0\r\nBit depth : 8 bits\r\nScan type : Progressive\r\nBits/(Pixel*Frame) : 0.150\r\nStream size : 1.66 GiB (98%)\r\nWriting library : x264 core 102 r1666 d058f37\r\nEncoding settings : cabac=1 / ref=2 / deblock=1:0:0 / analyse=0x3:0x113 / me=hex / subme=6 / psy=1 / psy_rd=1.00:0.00 / mixed_ref=0 / me_range=16 / chroma_me=1 / trellis=0 / 8x8dct=1 / cqm=0 / deadzone=21,11 / fast_pskip=1 / chroma_qp_offset=-2 / threads=24 / sliced_threads=0 / nr=0 / decimate=1 / interlaced=0 / constrained_intra=0 / bframes=3 / b_pyramid=0 / b_adapt=1 / b_bias=0 / direct=3 / weightb=1 / open_gop=0 / weightp=2 / keyint=250 / keyint_min=25 / scenecut=40 / intra_refresh=0 / rc_lookahead=40 / rc=crf / mbtree=1 / crf=20.0 / qcomp=0.60 / qpmin=10 / qpmax=51 / qpstep=4 / ip_ratio=1.41 / aq=1:1.00\r\nEncoded date : UTC 1970-01-01 00:00:00\r\nTagged date : UTC 1970-01-01 00:00:00\r\n\r\nAudio\r\nID : 2\r\nFormat : AAC\r\nFormat/Info : Advanced Audio Codec\r\nFormat profile : LC\r\nCodec ID : 40\r\nDuration : 25mn 32s\r\nBit rate mode : Variable\r\nBit rate : 151 Kbps\r\nChannel(s) : 2 channels\r\nChannel positions : Front: L R\r\nSampling rate : 44.1 KHz\r\nCompression mode : Lossy\r\nStream size : 27.6 MiB (2%)\r\nEncoded date : UTC 1970-01-01 00:00:00\r\nTagged date : UTC 1970-01-01 00:00:00\r\n\r\nhd pornstars teens ryushare.com uploaded.net keep2share.cc fileom.com streamcloud.eu allmyvideos.net ul.to download porn movies clips