HD Teen Sex Tube 3628

Young 720p hd porn 3634HD Porn Video 3620

Posted in Amateur, HD Porn, Sex Movies, Teen | 10470 Views |


Rate this girl !!!




\r\n\r\n\r\n



DOWNLOAD

Keep2share.cc - Uploaded.net - Openload.co - Rapidu.net


http://fileom.com/wv4ngcmmkpem/NBSGHYln.wmv.html
http://k2s.cc/file/74f52f73ae902/NBSGHYln.wmv
http://ryushare.com/nwcyao5x8wyt/NBSGHYln.wmv


Premium here:
uploaded.net
keep2share.cc
rapidu.net.cc


Teens related to HD Teen Sex Tube 3628


www hdxxx porn tube 226248 ryushare uploaded keep2share

www hdxxx porn tube 226248

HD Porn Teen Sex Videos 1479 ryushare uploaded keep2share

HD Porn Teen Sex Videos 1479

Lena, Galina – Fucking Together is Awesome ryushare uploaded keep2share

Lena, Galina – Fucking Together is Awesome

Teen Sex Movies 3822 ryushare uploaded keep2share

Teen Sex Movies 3822

Anjelica – One Love… One Life ryushare uploaded keep2share

Anjelica – One Love… One Life

Susan Ayn ryushare uploaded keep2share

Susan Ayn

Wow Girls Porn Clips download 224386 ryushare uploaded keep2share

Wow Girls Porn Clips download 224386

First time Sexual Films 18 sex xxx 225013 ryushare uploaded keep2share

First time Sexual Films 18 sex xxx 225013

Hardcore sex videos in the high definition quality 4529 ryushare uploaded keep2share

Hardcore sex videos in the high definition quality 4529

Wow porn hd downloads 225065 ryushare uploaded keep2share

Wow porn hd downloads 225065

www xxxnx hd porn video ryushare uploaded keep2share

www xxxnx hd porn video

Teen Sex Movies Young Porn Tube Vids 3596 ryushare uploaded keep2share

Teen Sex Movies Young Porn Tube Vids 3596

8 Teen XXX – Teen Sex 4481 ryushare uploaded keep2share

8 Teen XXX – Teen Sex 4481

teenssexdownloa 226445 ryushare uploaded keep2share

teenssexdownloa 226445

Young XXX Tube Videos 2398 ryushare uploaded keep2share

Young XXX Tube Videos 2398

HD Porn Teen Sex Videos 2182 ryushare uploaded keep2share

HD Porn Teen Sex Videos 2182

Teens Sweet orgy ryushare uploaded keep2share

Teens Sweet orgy

High Definition Movies on HD 1683 ryushare uploaded keep2share

High Definition Movies on HD 1683

saxy english xxx hd download ryushare uploaded keep2share

saxy english xxx hd download

Free Teen Porn Videos at Teen Sex Tube XXX 1416 ryushare uploaded keep2share

Free Teen Porn Videos at Teen Sex Tube XXX 1416

HD Sex World Videos High Definition Free Porn 224514 ryushare uploaded keep2share

HD Sex World Videos High Definition Free Porn 224514

HD Porn Teen Sex Videos 2786 ryushare uploaded keep2share

HD Porn Teen Sex Videos 2786

Porn HD Sex HD Teen Sex 225023 ryushare uploaded keep2share

Porn HD Sex HD Teen Sex 225023

Angela & Lindsey A Threesome Date ryushare uploaded keep2share

Angela & Lindsey A Threesome Date

www hdworld xxx video com ryushare uploaded keep2share

www hdworld xxx video com

Teen Sex Movies Young Porn Tube Vids 225825 ryushare uploaded keep2share

Teen Sex Movies Young Porn Tube Vids 225825

HD Teen Sex Tube 4271 ryushare uploaded keep2share

HD Teen Sex Tube 4271

WowGirls.com Linda Sweet, Lucy Li – True Fulfillment ryushare uploaded keep2share

WowGirls.com Linda Sweet, Lucy Li – True Fulfillment

Hardcore Sex Hub 225062 ryushare uploaded keep2share

Hardcore Sex Hub 225062

Nude Teens fucking hard 1613 ryushare uploaded keep2share

Nude Teens fucking hard 1613

Daisy Summers (Don’t Tell Your Sister Seriously) ryushare uploaded keep2share

Daisy Summers (Don’t Tell Your Sister Seriously)

www sexvideo hd1280 226502 ryushare uploaded keep2share

www sexvideo hd1280 226502

High Definition Movies on HD 4040 ryushare uploaded keep2share

High Definition Movies on HD 4040

Teen porn xxx 225068 ryushare uploaded keep2share

Teen porn xxx 225068

Porn teen hd downloads 225513 ryushare uploaded keep2share

Porn teen hd downloads 225513

Report broken links / Post a comment

You must be logged in to post a comment.



General\r\nComplete name : D:JDDescargasNBSGHYln.wmv\r\nFormat : Windows Media\r\nFile size : 611 MiB\r\nDuration : 23mn 32s\r\nOverall bit rate mode : Constant\r\nOverall bit rate : 3 631 Kbps\r\nMaximum Overall bit rate : 3 658 Kbps\r\nEncoded date : UTC 2012-10-11 17:47:44.478\r\nWriting application : TMPGEnc Video Mastering Works 5 Version. 5.1.1.52\r\n\r\nVideo\r\nID : 2\r\nFormat : VC-1\r\nFormat profile : [email protected]\r\nCodec ID : WMV3\r\nCodec ID/Info : Windows Media Video 9\r\nCodec ID/Hint : WMV3\r\nDescription of the codec : Windows Media Video 9 - Professional\r\nDuration : 23mn 32s\r\nBit rate mode : Constant\r\nBit rate : 3 500 Kbps\r\nWidth : 1 280 pixels\r\nHeight : 720 pixels\r\nDisplay aspect ratio : 16:9\r\nFrame rate : 25.000 fps\r\nColor space : YUV\r\nChroma subsampling : 4:2:0\r\nBit depth : 8 bits\r\nScan type : Progressive\r\nCompression mode : Lossy\r\nBits/(Pixel*Frame) : 0.152\r\nStream size : 589 MiB (96%)\r\nLanguage : English (US)\r\n\r\nAudio\r\nID : 1\r\nFormat : WMA\r\nFormat version : Version 2\r\nCodec ID : 161\r\nCodec ID/Info : Windows Media Audio\r\nDescription of the codec : Windows Media Audio 9.2 - 128 kbps, 48 kHz, stereo 1-pass CBR\r\nDuration : 23mn 32s\r\nBit rate mode : Constant\r\nBit rate : 128 Kbps\r\nChannel(s) : 2 channels\r\nSampling rate : 48.0 KHz\r\nBit depth : 16 bits\r\nStream size : 21.6 MiB (4%)\r\nLanguage : English (US)\r\n\r\n