HD Teen Sex Tube 3488

XXX young porn sex 3489Wow girls porn teens 3486

Posted in HD Porn, Sex Movies, Teen | 17243 Views |


Rate this girl !!!




Blonde, Blowjob, Hairy Pussy, Hardcore, Pussy Licking, Shaved Pussy, Shaving, Small Tits, 1080p\r\n\r\nWowGirls.com Linda S (Getting Ready For The Storm)\r\n\r\nWowGirls.com Linda S (Getting Ready For The Storm)\r\n\r\nWowGirls.com Linda S (Getting Ready For The Storm)\r\n\r\nFile: wowg.13.11.03.linda.s.getting.ready.for.the.storm.mp4\r\nSize: 930593565 bytes (887.48 MiB), duration: 00:22:50, avg.bitrate: 5434 kb/s\r\nAudio: aac, 44100 Hz, 2 channels, s16, 113 kb/s (und)\r\nVideo: h264, yuv420p, 1920×1080, 5311 kb/s, 29.97 fps(r) (und)



DOWNLOAD

Keep2share.cc - Uploaded.net - Openload.co - Rapidu.net


http://ryushare.com/0ctgety94oyr/w0wg.13.11.03.l1nda.s.g3tting.r34dy.for.the.st0rm.mp4
http://ul.to/zjxxpgsg/w0wg.13.11.03.l1nda.s.g3tting.r34dy.for.the.st0rm.mp4
http://k2s.cc/file/7d04729f74566/w0wg.13.11.03.l1nda.s.g3tting.r34dy.for.the.st0rm.mp4




Premium here:
uploaded.net
keep2share.cc
rapidu.net.cc

Teens related to HD Teen Sex Tube 3488


[Nubiles.net] Gina Valentina (Petite Stunner / 29.11.2016) [Solo, Mastrubation, 1080p] ryushare uploaded keep2share

[Nubiles.net] Gina Valentina (Petite Stunner / 29.11.2016) [Solo, Mastrubation, 1080p]

Sweet Teen Porn – Young Porn Videos 224138 ryushare uploaded keep2share

Sweet Teen Porn – Young Porn Videos 224138

Clara and Laura. Playful collaboration ryushare uploaded keep2share

Clara and Laura. Playful collaboration

Teen porn movies 1954 ryushare uploaded keep2share

Teen porn movies 1954

jaaz sex movis 226121 ryushare uploaded keep2share

jaaz sex movis 226121

Tube xxx 223693 ryushare uploaded keep2share

Tube xxx 223693

Kathia Nobili, Meg Magic – Low Self-Esteem ryushare uploaded keep2share

Kathia Nobili, Meg Magic – Low Self-Esteem

HD Teens Sex Tube Videos XxX 223808 ryushare uploaded keep2share

HD Teens Sex Tube Videos XxX 223808

Teen Sex Movies 1521 ryushare uploaded keep2share

Teen Sex Movies 1521

A Busty Takes A Biggie – Connie ryushare uploaded keep2share

A Busty Takes A Biggie – Connie

Wow girls downloads hd 224254 ryushare uploaded keep2share

Wow girls downloads hd 224254

Long Julie Vee movies 226110 ryushare uploaded keep2share

Long Julie Vee movies 226110

Nancey – Aggressive Neighbours ryushare uploaded keep2share

Nancey – Aggressive Neighbours

Tracy Smile – Soldier ryushare uploaded keep2share

Tracy Smile – Soldier

21Naturals.com Ivana Sugar – Urges ryushare uploaded keep2share

21Naturals.com Ivana Sugar – Urges

sexs 18 hd indir 226449 ryushare uploaded keep2share

sexs 18 hd indir 226449

Kiki – Panties Free Day ryushare uploaded keep2share

Kiki – Panties Free Day

Teen Sex Movies Young Porn Tube Vids 1731 ryushare uploaded keep2share

Teen Sex Movies Young Porn Tube Vids 1731

Teen porn xxx 5290 ryushare uploaded keep2share

Teen porn xxx 5290

First time Sexual Films 18 sex xxx 5336 ryushare uploaded keep2share

First time Sexual Films 18 sex xxx 5336

Lіоnа & Сhаrlіzе Веllа – Forest Fun ryushare uploaded keep2share

Lіоnа & Сhаrlіzе Веllа – Forest Fun

x art angelica susie heidi orgy 226351 ryushare uploaded keep2share

x art angelica susie heidi orgy 226351

Russian Girls Cumshot Compilation ryushare uploaded keep2share

Russian Girls Cumshot Compilation

Alexis seduced by neighbour ryushare uploaded keep2share

Alexis seduced by neighbour

teens handjob porn ryushare uploaded keep2share

teens handjob porn

18 years girl xxx sex videos) 2758 ryushare uploaded keep2share

18 years girl xxx sex videos) 2758

2Ch Young ryushare uploaded keep2share

2Ch Young

teen xxx video hd dowalona ryushare uploaded keep2share

teen xxx video hd dowalona

Wow porn hd downloads 224319 ryushare uploaded keep2share

Wow porn hd downloads 224319

Amazing Outdoors – Beautiful Brunette ryushare uploaded keep2share

Amazing Outdoors – Beautiful Brunette

Xxx x uploded haigh quality photos 226705 ryushare uploaded keep2share

Xxx x uploded haigh quality photos 226705

pc hd porn xxx video ryushare uploaded keep2share

pc hd porn xxx video

Small girls and boys porn 4304 ryushare uploaded keep2share

Small girls and boys porn 4304

Nubiles-Porn Sierra Nevadah – Fucking Love ryushare uploaded keep2share

Nubiles-Porn Sierra Nevadah – Fucking Love

proanstar sex video HD danlowd ryushare uploaded keep2share

proanstar sex video HD danlowd

Report broken links / Post a comment

You must be logged in to post a comment.



General w0wg.L1nd4.St0rm.rar\r\nComplete name : H:HD TEENS PORN/DOWNLOAD/RYUSHARE/UPLOADED/KEEP2SHARE/TURBOBIT/wowg.13.11.03.linda.s.getting.ready.for.the.storm.mp4\r\nFormat : MPEG-4\r\nFormat profile : Base Media\r\nCodec ID : isom\r\nFile size : 887 MiB\r\nDuration : 22mn 50s\r\nOverall bit rate : 5 432 Kbps\r\nMovie name : Download from HDteenmania.com\r\nWriting application : Lavf55.19.103\r\nComment : Download from HDteenmania.com\r\n\r\nVideo\r\nID : 1\r\nFormat : AVC\r\nFormat/Info : Advanced Video Codec\r\nFormat profile : [email protected]\r\nFormat settings, CABAC : Yes\r\nFormat settings, ReFrames : 2 frames\r\nCodec ID : avc1\r\nCodec ID/Info : Advanced Video Coding\r\nDuration : 22mn 50s\r\nBit rate : 5 311 Kbps\r\nWidth : 1 920 pixels\r\nHeight : 1 080 pixels\r\nDisplay aspect ratio : 16:9\r\nFrame rate mode : Constant\r\nFrame rate : 29.970 fps\r\nColor space : YUV\r\nChroma subsampling : 4:2:0\r\nBit depth : 8 bits\r\nScan type : Progressive\r\nBits/(Pixel*Frame) : 0.085\r\nStream size : 868 MiB (98%)\r\nWriting library : x264 core 107\r\nEncoding settings : cabac=1 / ref=2 / deblock=1:0:0 / analyse=0x3:0x113 / me=hex / subme=6 / psy=1 / psy_rd=1.00:0.00 / mixed_ref=0 / me_range=16 / chroma_me=1 / trellis=0 / 8x8dct=1 / cqm=0 / deadzone=21,11 / fast_pskip=1 / chroma_qp_offset=-2 / threads=24 / sliced_threads=0 / nr=0 / decimate=1 / interlaced=0 / constrained_intra=0 / bframes=3 / b_pyramid=0 / b_adapt=1 / b_bias=0 / direct=3 / weightb=1 / open_gop=0 / weightp=2 / keyint=250 / keyint_min=25 / scenecut=40 / intra_refresh=0 / rc_lookahead=40 / rc=crf / mbtree=1 / crf=20.0 / qcomp=0.60 / qpmin=10 / qpmax=51 / qpstep=4 / ip_ratio=1.41 / aq=1:1.00\r\n\r\nAudio\r\nID : 2\r\nFormat : AAC\r\nFormat/Info : Advanced Audio Codec\r\nFormat profile : LC\r\nCodec ID : 40\r\nDuration : 22mn 50s\r\nBit rate mode : Constant\r\nBit rate : 113 Kbps\r\nChannel(s) : 2 channels\r\nChannel positions : Front: L R\r\nSampling rate : 44.1 KHz\r\nCompression mode : Lossy\r\nDelay relative to video : 33ms\r\nStream size : 18.5 MiB (2%)\r\n\r\n