HD Teen Sex Tube 1620

HD Sex World Videos High Definition Free Porn 1623Nude Teens fucking hard 1617

Posted in HD Porn, Pornstar, Sex Movies, Teen | 9211 Views |


Rate this girl !!!




\r\n\r\nhttp://img102.imagetwist.com/i/05252/84kop7zy6vbv.jpeg\r\n\r\n Link(368 Mb||24:22||1280*720||MP4)



DOWNLOAD

Keep2share.cc - Uploaded.net - Openload.co - Rapidu.net


http://keep2share.cc/file/a468f2a3070e1
http://ryushare.com/rb37vacx7xrz/SRCRYStl.rar
http://ul.to/ja3fdp24


Premium here:
uploaded.net
keep2share.cc
rapidu.net.cc


Teens related to HD Teen Sex Tube 1620


www defloration hqvideo com 226313 ryushare uploaded keep2share

www defloration hqvideo com 226313

hardcore sex xxx 226030 ryushare uploaded keep2share

hardcore sex xxx 226030

Porno lesbian young teens movies 4143 ryushare uploaded keep2share

Porno lesbian young teens movies 4143

www xxxsexncon ryushare uploaded keep2share

www xxxsexncon

Teen porn movies 1195 ryushare uploaded keep2share

Teen porn movies 1195

Hardcore Sex Hub 225062 ryushare uploaded keep2share

Hardcore Sex Hub 225062

Nude Teens fucking hard 1613 ryushare uploaded keep2share

Nude Teens fucking hard 1613

hd yes xxxporn ryushare uploaded keep2share

hd yes xxxporn

Natali – PublicAgent ryushare uploaded keep2share

Natali – PublicAgent

High Definition Movies on HD 5364 ryushare uploaded keep2share

High Definition Movies on HD 5364

best teen sex mobi 226301 ryushare uploaded keep2share

best teen sex mobi 226301

College Teen Sex 3576 ryushare uploaded keep2share

College Teen Sex 3576

hd porn videos in England 226222 ryushare uploaded keep2share

hd porn videos in England 226222

teen porn hard fuck pics 226127 ryushare uploaded keep2share

teen porn hard fuck pics 226127

Porn party teen girls 225121 ryushare uploaded keep2share

Porn party teen girls 225121

SpinChix mp4 226131 ryushare uploaded keep2share

SpinChix mp4 226131

College Teen Sex 2344 ryushare uploaded keep2share

College Teen Sex 2344

Teen Sex Videos Tube Movies 225137 ryushare uploaded keep2share

Teen Sex Videos Tube Movies 225137

Uploaded net porn XXX 225809 ryushare uploaded keep2share

Uploaded net porn XXX 225809

xvideos hd porn videos DOWNLOAD ryushare uploaded keep2share

xvideos hd porn videos DOWNLOAD

Katerina Kay – No One Will See It Right? ryushare uploaded keep2share

Katerina Kay – No One Will See It Right?

dowanload porn short hd ryushare uploaded keep2share

dowanload porn short hd

hot and sexy xxx bf movie download 226359 ryushare uploaded keep2share

hot and sexy xxx bf movie download 226359

xxx hd smoll garls video com ryushare uploaded keep2share

xxx hd smoll garls video com

Teenies Videos – Teen Porn, Teen Sex, XXX Free Videos 2408 ryushare uploaded keep2share

Teenies Videos – Teen Porn, Teen Sex, XXX Free Videos 2408

Taissia A – Bed of Roses ryushare uploaded keep2share

Taissia A – Bed of Roses

HD Porn Videos 4077 ryushare uploaded keep2share

HD Porn Videos 4077

Adult Hardcore XXX Sex Videos 1879 ryushare uploaded keep2share

Adult Hardcore XXX Sex Videos 1879

Wow girls downloads hd 224848 ryushare uploaded keep2share

Wow girls downloads hd 224848

Porno young teens movies 2581 ryushare uploaded keep2share

Porno young teens movies 2581

21Naturals.com Beata Undine – Dreaming ryushare uploaded keep2share

21Naturals.com Beata Undine – Dreaming

teens handjob porn ryushare uploaded keep2share

teens handjob porn

MyDirtySecret – All Sex, Amateur, Creampie, 720p ryushare uploaded keep2share

MyDirtySecret – All Sex, Amateur, Creampie, 720p

Sweet Teen Porn – Young Porn Videos 225330 ryushare uploaded keep2share

Sweet Teen Porn – Young Porn Videos 225330

Free Porn Videos Xxx Movies Pussy Porn 5324 ryushare uploaded keep2share

Free Porn Videos Xxx Movies Pussy Porn 5324

Report broken links / Post a comment

You must be logged in to post a comment.



General\r\nComplete name : D:HD Teens Download Porn Sex clips movies Tube.xxxSRCRYStlSRCRYStl.mp4\r\nFormat : MPEG-4\r\nFormat profile : Base Media\r\nCodec ID : isom\r\nFile size : 368 MiB\r\nDuration : 24mn 22s\r\nOverall bit rate mode : Variable\r\nOverall bit rate : 2 110 Kbps\r\nEncoded date : UTC 2013-06-20 23:46:25\r\nTagged date : UTC 2013-06-20 23:46:25\r\nWriting application : Lavf53.32.100\r\n\r\nVideo\r\nID : 1\r\nFormat : AVC\r\nFormat/Info : Advanced Video Codec\r\nFormat profile : [email protected]\r\nFormat settings, CABAC : Yes\r\nFormat settings, ReFrames : 5 frames\r\nCodec ID : avc1\r\nCodec ID/Info : Advanced Video Coding\r\nDuration : 24mn 22s\r\nBit rate : 2 000 Kbps\r\nWidth : 1 280 pixels\r\nHeight : 720 pixels\r\nDisplay aspect ratio : 16:9\r\nFrame rate mode : Constant\r\nFrame rate : 25.000 fps\r\nColor space : YUV\r\nChroma subsampling : 4:2:0\r\nBit depth : 8 bits\r\nScan type : Progressive\r\nBits/(Pixel*Frame) : 0.087\r\nStream size : 348 MiB (95%)\r\nWriting library : x264 core 129 r2245 bc13772\r\nEncoding settings : cabac=1 / ref=5 / deblock=1:0:0 / analyse=0x3:0x113 / me=umh / subme=8 / psy=0 / mixed_ref=1 / me_range=16 / chroma_me=1 / trellis=1 / 8x8dct=1 / cqm=0 / deadzone=21,11 / fast_pskip=1 / chroma_qp_offset=0 / threads=36 / lookahead_threads=6 / sliced_threads=0 / nr=0 / decimate=1 / interlaced=0 / bluray_compat=0 / constrained_intra=0 / bframes=3 / b_pyramid=2 / b_adapt=2 / b_bias=0 / direct=3 / weightb=1 / open_gop=0 / weightp=2 / keyint=250 / keyint_min=25 / scenecut=40 / intra_refresh=0 / rc=2pass / mbtree=0 / bitrate=2000 / ratetol=1.0 / qcomp=0.60 / qpmin=10 / qpmax=51 / qpstep=4 / cplxblur=20.0 / qblur=0.5 / ip_ratio=1.40 / pb_ratio=1.30 / aq=1:1.00\r\nLanguage : English\r\nEncoded date : UTC 2013-06-20 23:46:25\r\nTagged date : UTC 2013-06-20 23:46:25\r\n\r\nAudio\r\nID : 2\r\nFormat : AAC\r\nFormat/Info : Advanced Audio Codec\r\nFormat profile : LC\r\nCodec ID : 40\r\nDuration : 24mn 22s\r\nBit rate mode : Variable\r\nBit rate : 105 Kbps\r\nMaximum bit rate : 128 Kbps\r\nChannel(s) : 2 channels\r\nChannel positions : Front: L R\r\nSampling rate : 48.0 KHz\r\nCompression mode : Lossy\r\nStream size : 18.3 MiB (5%)\r\nLanguage : English\r\nEncoded date : UTC 2013-06-20 23:46:25\r\nTagged date : UTC 2013-06-20 23:46:25\r\n\r\n