HD Teen Sex Tube 1330

Young Sex Movies 1335Nude Teens fucking hard 1320

Posted in Amateur, HD Porn, Sex Movies, Teen | 16417 Views |


Rate this girl !!!




\r\n\r\n\r\n\r\n\r\n Link(890 Mb||23:57||1280*720||WMV)



DOWNLOAD

Keep2share.cc - Uploaded.net - Openload.co - Rapidu.net


http://ul.to/h1a5r6m3
http://ryushare.com/60802lghkus5/CNSTMNdy.rar
http://keep2share.cc/file/c997c5d7157ba


Premium here:
uploaded.net
keep2share.cc
rapidu.net.cc


Teens related to HD Teen Sex Tube 1330


TeensAnalyzed – Nanette – Taking You Closer To Anal [FullHD 1080p] ryushare uploaded keep2share

TeensAnalyzed – Nanette – Taking You Closer To Anal [FullHD 1080p]

Teen porn movies 3825 ryushare uploaded keep2share

Teen porn movies 3825

Young 720p hd porn 4581 ryushare uploaded keep2share

Young 720p hd porn 4581

Teen Sex Movies 224292 ryushare uploaded keep2share

Teen Sex Movies 224292

Free Porn Videos Xxx Movies Pussy Porn 225004 ryushare uploaded keep2share

Free Porn Videos Xxx Movies Pussy Porn 225004

HD Porn Videos 4077 ryushare uploaded keep2share

HD Porn Videos 4077

High Definition Movies on HD 4040 ryushare uploaded keep2share

High Definition Movies on HD 4040

Wow girls porn teens 2578 ryushare uploaded keep2share

Wow girls porn teens 2578

Caught Up In The Moment – Carmen Fox ryushare uploaded keep2share

Caught Up In The Moment – Carmen Fox

xxx movie hd colle 226176 ryushare uploaded keep2share

xxx movie hd colle 226176

free heigh definition porn movies download 226263 ryushare uploaded keep2share

free heigh definition porn movies download 226263

Teen porn xxx 223828 ryushare uploaded keep2share

Teen porn xxx 223828

bd hd hq xxx pron video ryushare uploaded keep2share

bd hd hq xxx pron video

The best Teen sex 225923 ryushare uploaded keep2share

The best Teen sex 225923

Norma – Welcome to fuck her for cash ryushare uploaded keep2share

Norma – Welcome to fuck her for cash

Young Sex Movies 2635 ryushare uploaded keep2share

Young Sex Movies 2635

Free Teen Porn Videos at Teen Sex Tube XXX 5283 ryushare uploaded keep2share

Free Teen Porn Videos at Teen Sex Tube XXX 5283

Free Teen Porn Videos at Teen Sex Tube XXX 225611 ryushare uploaded keep2share

Free Teen Porn Videos at Teen Sex Tube XXX 225611

Yulia – Wild Anal Slut Owned In The Forest ryushare uploaded keep2share

Yulia – Wild Anal Slut Owned In The Forest

porn HD anfisa argentina ryushare uploaded keep2share

porn HD anfisa argentina

Nude Teens fucking hard 4300 ryushare uploaded keep2share

Nude Teens fucking hard 4300

free sex movies ppran ryushare uploaded keep2share

free sex movies ppran

Hot download sex girls movies 224915 ryushare uploaded keep2share

Hot download sex girls movies 224915

HD porn teen downloads 2662 ryushare uploaded keep2share

HD porn teen downloads 2662

Small girls and boys porn 3443 ryushare uploaded keep2share

Small girls and boys porn 3443

Teenies Videos – Teen Porn, Teen Sex, XXX Free Videos 2114 ryushare uploaded keep2share

Teenies Videos – Teen Porn, Teen Sex, XXX Free Videos 2114

Teenage Fuck Clips 4687 ryushare uploaded keep2share

Teenage Fuck Clips 4687

Teens Sweet orgy ryushare uploaded keep2share

Teens Sweet orgy

Teen sex xxx hd 2916 ryushare uploaded keep2share

Teen sex xxx hd 2916

HD Porn Teen Sex Videos 2786 ryushare uploaded keep2share

HD Porn Teen Sex Videos 2786

Jessica Rayne – Jerk Off Instruction – Blowjob ryushare uploaded keep2share

Jessica Rayne – Jerk Off Instruction – Blowjob

sex hd gir down video com ryushare uploaded keep2share

sex hd gir down video com

Chinese videos in high definition quality 2480 ryushare uploaded keep2share

Chinese videos in high definition quality 2480

[SellYourGF.com] Chanel Lux – I got a hot gf you can fuck ryushare uploaded keep2share

[SellYourGF.com] Chanel Lux – I got a hot gf you can fuck

Sweet Teen Porn – Young Porn Videos 4113 ryushare uploaded keep2share

Sweet Teen Porn – Young Porn Videos 4113

Report broken links / Post a comment

You must be logged in to post a comment.



General\r\nComplete name : D:HD Teens Tube Download Porn Sex clips movies.xxxCNSTMNdyCNSTMNdy.wmv\r\nFormat : Windows Media\r\nFile size : 890 MiB\r\nDuration : 23mn 57s\r\nOverall bit rate : 5 191 Kbps\r\nMaximum Overall bit rate : 5 148 Kbps\r\nEncoded date : UTC 2013-06-26 19:19:13.000\r\n\r\nVideo\r\nID : 1\r\nFormat : VC-1\r\nFormat profile : Main\r\nCodec ID : WMV3\r\nCodec ID/Info : Windows Media Video 9\r\nCodec ID/Hint : WMV3\r\nDescription of the codec : Windows Media Video 309391160 - 2-pass VBR\r\nDuration : 23mn 57s\r\nBit rate : 5 000 Kbps\r\nWidth : 1 280 pixels\r\nHeight : 720 pixels\r\nDisplay aspect ratio : 16:9\r\nFrame rate : 25.000 fps\r\nColor space : YUV\r\nChroma subsampling : 4:2:0\r\nBit depth : 8 bits\r\nScan type : Progressive\r\nCompression mode : Lossy\r\nBits/(Pixel*Frame) : 0.217\r\nStream size : 857 MiB (96%)\r\n\r\nAudio\r\nID : 2\r\nFormat : WMA\r\nFormat version : Version 2\r\nCodec ID : 161\r\nCodec ID/Info : Windows Media Audio\r\nDescription of the codec : Windows Media Audio 9 - 309391160 kbps, 309391160 kHz, stereo CBR\r\nDuration : 23mn 57s\r\nBit rate : 128 Kbps\r\nChannel(s) : 2 channels\r\nSampling rate : 44.1 KHz\r\nBit depth : 16 bits\r\nStream size : 21.9 MiB (2%)\r\n\r\n