HD Teen Sex Tube 1127

HQ Sex Movies Download 1132HD Porn Teen Sex Videos 1122

Posted in HD Porn, Sex Movies, Teen | 23372 Views |


Rate this girl !!!




\r\n\r\nhttp://img55.imagetwist.com/i/05159/vhqb83jcamcf.jpeg Link(883 Mb||19:31||1280*720||AVI)



DOWNLOAD

Keep2share.cc - Uploaded.net - Openload.co - Rapidu.net


http://keep2share.cc/file/52ee48ff8c036
http://ryushare.com/hifeh2zz9cb6/TPRMZKsh.rar
http://ul.to/d0yciha2


Premium here:
uploaded.net
keep2share.cc
rapidu.net.cc


Teens related to HD Teen Sex Tube 1127


Girls do porn in HD 224797 ryushare uploaded keep2share

Girls do porn in HD 224797

Teens Sweet orgy ryushare uploaded keep2share

Teens Sweet orgy

Janette – Today Was Amazing ryushare uploaded keep2share

Janette – Today Was Amazing

Teenage Fuck Clips 2806 ryushare uploaded keep2share

Teenage Fuck Clips 2806

Young teens tube hot girls free porn video 1794 ryushare uploaded keep2share

Young teens tube hot girls free porn video 1794

Anal Awakening ryushare uploaded keep2share

Anal Awakening

New sexy video pc hd ryushare uploaded keep2share

New sexy video pc hd

Good Teen Tube Sexy Young Naked Girls Movies 2535 ryushare uploaded keep2share

Good Teen Tube Sexy Young Naked Girls Movies 2535

antartika poeno sex 226048 ryushare uploaded keep2share

antartika poeno sex 226048

Welcome To The Wild / Beata ryushare uploaded keep2share

Welcome To The Wild / Beata

Teen Sex Movies Young Porn Tube Vids 2420 ryushare uploaded keep2share

Teen Sex Movies Young Porn Tube Vids 2420

Teen Sex Porn Videos Free Nude Teens 4441 ryushare uploaded keep2share

Teen Sex Porn Videos Free Nude Teens 4441

Teen Porn XXX Tube 225246 ryushare uploaded keep2share

Teen Porn XXX Tube 225246

Teen xxx sex hd 224369 ryushare uploaded keep2share

Teen xxx sex hd 224369

Xxx videos 360 video size ryushare uploaded keep2share

Xxx videos 360 video size

noveteens girls models clips 226158 ryushare uploaded keep2share

noveteens girls models clips 226158

Sex Teens porn movies 2846 ryushare uploaded keep2share

Sex Teens porn movies 2846

AbbyWinters.com – Carmina & Pablo ryushare uploaded keep2share

AbbyWinters.com – Carmina & Pablo

xxxsexHDvieo 226349 ryushare uploaded keep2share

xxxsexHDvieo 226349

// hq720p porn com 226758 ryushare uploaded keep2share

// hq720p porn com 226758

Teen Porn XXX Tube 1957 ryushare uploaded keep2share

Teen Porn XXX Tube 1957

HD Sex World Videos High Definition Free Porn 224629 ryushare uploaded keep2share

HD Sex World Videos High Definition Free Porn 224629

Wow Porn Movies download) 224734 ryushare uploaded keep2share

Wow Porn Movies download) 224734

Hardcore Sex Hub 225124 ryushare uploaded keep2share

Hardcore Sex Hub 225124

HD Teen Sex Tube 5272 ryushare uploaded keep2share

HD Teen Sex Tube 5272

High Definition Movies on HD 4040 ryushare uploaded keep2share

High Definition Movies on HD 4040

xxxsex video hd1080p dawnlod 226611 ryushare uploaded keep2share

xxxsex video hd1080p dawnlod 226611

HD porn uploaded 4876 ryushare uploaded keep2share

HD porn uploaded 4876

HD Teens Sex Tube Videos XxX 225747 ryushare uploaded keep2share

HD Teens Sex Tube Videos XxX 225747

Tina Blade, Marica Hase – Spurts of love ryushare uploaded keep2share

Tina Blade, Marica Hase – Spurts of love

Sex and lots of milk ryushare uploaded keep2share

Sex and lots of milk

xxxsxevid collega com ryushare uploaded keep2share

xxxsxevid collega com

HD Teens Sex Tube Videos XxX 224988 ryushare uploaded keep2share

HD Teens Sex Tube Videos XxX 224988

Small girls and boys porn 3511 ryushare uploaded keep2share

Small girls and boys porn 3511

bbb wwa com xxx hd 226367 ryushare uploaded keep2share

bbb wwa com xxx hd 226367

Report broken links / Post a comment

You must be logged in to post a comment.



General\r\nComplete name : D:xxxTPRMZKshTPRMZKsh.avi\r\nFormat : MPEG-4\r\nFormat profile : Base Media / Version 2\r\nCodec ID : mp42\r\nFile size : 883 MiB\r\nDuration : 19mn 31s\r\nOverall bit rate : 6 321 Kbps\r\nEncoded date : UTC 2012-02-17 21:18:53\r\nTagged date : UTC 2012-02-17 21:47:10\r\n\r\nVideo\r\nID : 2\r\nFormat : AVC\r\nFormat/Info : Advanced Video Codec\r\nFormat profile : [email protected]\r\nFormat settings, CABAC : No\r\nFormat settings, ReFrames : 2 frames\r\nFormat settings, GOP : M=2, N=90\r\nCodec ID : avc1\r\nCodec ID/Info : Advanced Video Coding\r\nDuration : 19mn 31s\r\nBit rate : 6 000 Kbps\r\nWidth : 1 280 pixels\r\nHeight : 720 pixels\r\nDisplay aspect ratio : 16:9\r\nFrame rate mode : Constant\r\nFrame rate : 30.000 fps\r\nColor space : YUV\r\nChroma subsampling : 4:2:0\r\nBit depth : 8 bits\r\nScan type : Progressive\r\nBits/(Pixel*Frame) : 0.217\r\nStream size : 838 MiB (95%)\r\nLanguage : English\r\nEncoded date : UTC 2012-02-17 21:18:54\r\nTagged date : UTC 2012-02-17 21:47:10\r\nColor primaries : BT.709\r\nTransfer characteristics : BT.709\r\nMatrix coefficients : BT.709\r\n\r\nAudio\r\nID : 1\r\nFormat : AAC\r\nFormat/Info : Advanced Audio Codec\r\nFormat profile : LC\r\nCodec ID : 40\r\nDuration : 19mn 31s\r\nSource duration : 19mn 31s\r\nBit rate mode : Constant\r\nBit rate : 320 Kbps\r\nChannel(s) : 2 channels\r\nChannel positions : Front: L R\r\nSampling rate : 44.1 KHz\r\nCompression mode : Lossy\r\nStream size : 44.2 MiB (5%)\r\nSource stream size : 44.2 MiB (5%)\r\nLanguage : English\r\nEncoded date : UTC 2012-02-17 21:18:54\r\nTagged date : UTC 2012-02-17 21:47:10\r\n\r\n