HD sex movies downloads 3688

First time Sexual Films 18 sex xxx 3689Hd quality - Teen sex video 3683

Posted in Amateur, HD Porn, Sex Movies, Teen | 23131 Views |


Rate this girl !!!




\r\n\r\n5.jpeg



DOWNLOAD

Keep2share.cc - Uploaded.net - Openload.co - Rapidu.net


http://ryushare.com/u6nrr4ml7eak/TRNSGRsl.mp4
http://ul.to/latc9t4b/TRNSGRsl.mp4
http://k2s.cc/file/734404d2622bf/TRNSGRsl.mp4
http://fileom.com/y0alhoqj8606/TRNSGRsl.mp4.html


Premium here:
uploaded.net
keep2share.cc
rapidu.net.cc


Teens related to HD sex movies downloads 3688


Lucy Li – Perky Teen Lucy Li Gets Lathered download in hd 226168 ryushare uploaded keep2share

Lucy Li – Perky Teen Lucy Li Gets Lathered download in hd 226168

hd hq xxx porn videos dawonlod 226399 ryushare uploaded keep2share

hd hq xxx porn videos dawonlod 226399

High Definition Movies on HD 224619 ryushare uploaded keep2share

High Definition Movies on HD 224619

Sweet Teen Porn – Young Porn Videos 3641 ryushare uploaded keep2share

Sweet Teen Porn – Young Porn Videos 3641

sex 18 xxxxxxxxx hd ryushare uploaded keep2share

sex 18 xxxxxxxxx hd

video9 inx ryushare uploaded keep2share

video9 inx

free sex tubes direct download 226472 ryushare uploaded keep2share

free sex tubes direct download 226472

boy xxx walpapr 226621 ryushare uploaded keep2share

boy xxx walpapr 226621

www hd xxxxxx bideos com 226676 ryushare uploaded keep2share

www hd xxxxxx bideos com 226676

Model porno sex 2822 ryushare uploaded keep2share

Model porno sex 2822

Tube xxx 5228 ryushare uploaded keep2share

Tube xxx 5228

HD Porn Video 5532 ryushare uploaded keep2share

HD Porn Video 5532

High Definition Movies on HD Teen Porn XXX Tube 1229 ryushare uploaded keep2share

High Definition Movies on HD Teen Porn XXX Tube 1229

[SellYourGF.com] Jade, Asa Belle – Fucked by the husband’s boss ryushare uploaded keep2share

[SellYourGF.com] Jade, Asa Belle – Fucked by the husband’s boss

Hot Teen Sex HD videos 1149 ryushare uploaded keep2share

Hot Teen Sex HD videos 1149

Nude Teens fucking hard 1613 ryushare uploaded keep2share

Nude Teens fucking hard 1613

Teen Porn XXX Tube 224426 ryushare uploaded keep2share

Teen Porn XXX Tube 224426

First time Sexual Films 18 sex xxx 5710 ryushare uploaded keep2share

First time Sexual Films 18 sex xxx 5710

Hd quality – Teen sex video 225399 ryushare uploaded keep2share

Hd quality – Teen sex video 225399

HD Porn Video 1701 ryushare uploaded keep2share

HD Porn Video 1701

J. Joanna – Slam It Harder ryushare uploaded keep2share

J. Joanna – Slam It Harder

faapy x vedios com 226486 ryushare uploaded keep2share

faapy x vedios com 226486

HQ Sex Movies Download 4182 ryushare uploaded keep2share

HQ Sex Movies Download 4182

Free Young Porn Videos XXX Teen Porn 223975 ryushare uploaded keep2share

Free Young Porn Videos XXX Teen Porn 223975

HDX 18X xxx com 226775 ryushare uploaded keep2share

HDX 18X xxx com 226775

beata russian tean porn 226488 ryushare uploaded keep2share

beata russian tean porn 226488

Pchd full fuckin video 226436 ryushare uploaded keep2share

Pchd full fuckin video 226436

hd format sex video free downloado 226108 ryushare uploaded keep2share

hd format sex video free downloado 226108

Teen Porn XXX Tube 1144 ryushare uploaded keep2share

Teen Porn XXX Tube 1144

1080p porn free dounloaded videos ryushare uploaded keep2share

1080p porn free dounloaded videos

Teen Sex Movies Young Porn Tube Vids 224709 ryushare uploaded keep2share

Teen Sex Movies Young Porn Tube Vids 224709

www8ten sex xxx com ryushare uploaded keep2share

www8ten sex xxx com

sky hd movie xxx 226267 ryushare uploaded keep2share

sky hd movie xxx 226267

hd small mbporn video sites 226424 ryushare uploaded keep2share

hd small mbporn video sites 226424

Hot Teen Sex HD videos 224860 ryushare uploaded keep2share

Hot Teen Sex HD videos 224860

Report broken links / Post a comment

You must be logged in to post a comment.



General\r\nComplete name : D:hd pornstars teens ryushare.com uploaded.net keep2share.cc fileom.com download porn movies clips TRNSGRsl.mp4\r\nFormat : MPEG-4\r\nFormat profile : Base Media\r\nCodec ID : isom\r\nFile size : 842 MiB\r\nDuration : 40mn 7s\r\nOverall bit rate : 2 935 Kbps\r\nEncoded date : UTC 2014-05-23 00:41:50\r\nTagged date : UTC 2014-05-23 00:41:50\r\nWriting application : Lavf53.32.100\r\n\r\nVideo\r\nID : 1\r\nFormat : AVC\r\nFormat/Info : Advanced Video Codec\r\nFormat profile : [email protected]\r\nFormat settings, CABAC : Yes\r\nFormat settings, ReFrames : 5 frames\r\nCodec ID : avc1\r\nCodec ID/Info : Advanced Video Coding\r\nDuration : 40mn 7s\r\nBit rate : 2 800 Kbps\r\nWidth : 1 280 pixels\r\nHeight : 720 pixels\r\nDisplay aspect ratio : 16:9\r\nFrame rate mode : Constant\r\nFrame rate : 25.000 fps\r\nColor space : YUV\r\nChroma subsampling : 4:2:0\r\nBit depth : 8 bits\r\nScan type : Progressive\r\nBits/(Pixel*Frame) : 0.122\r\nStream size : 804 MiB (95%)\r\nWriting library : x264 core 125 r2208 d9d2288\r\nEncoding settings : cabac=1 / ref=5 / deblock=1:0:0 / analyse=0x1:0x111 / me=umh / subme=8 / psy=1 / psy_rd=1.00:0.00 / mixed_ref=1 / me_range=16 / chroma_me=1 / trellis=1 / 8x8dct=0 / cqm=0 / deadzone=21,11 / fast_pskip=1 / chroma_qp_offset=-2 / threads=6 / lookahead_threads=1 / sliced_threads=0 / nr=0 / decimate=1 / interlaced=0 / bluray_compat=0 / constrained_intra=0 / bframes=3 / b_pyramid=2 / b_adapt=2 / b_bias=0 / direct=3 / weightb=1 / open_gop=0 / weightp=2 / keyint=250 / keyint_min=25 / scenecut=40 / intra_refresh=0 / rc_lookahead=50 / rc=abr / mbtree=1 / bitrate=2800 / ratetol=1.0 / qcomp=0.60 / qpmin=0 / qpmax=69 / qpstep=4 / ip_ratio=1.40 / aq=1:1.00\r\nLanguage : English\r\nEncoded date : UTC 2014-05-23 00:41:50\r\nTagged date : UTC 2014-05-23 00:41:50\r\n\r\nAudio\r\nID : 2\r\nFormat : AAC\r\nFormat/Info : Advanced Audio Codec\r\nFormat profile : LC\r\nCodec ID : 40\r\nDuration : 40mn 7s\r\nBit rate mode : Constant\r\nBit rate : 128 Kbps\r\nChannel(s) : 2 channels\r\nChannel positions : Front: L R\r\nSampling rate : 44.1 KHz\r\nCompression mode : Lossy\r\nStream size : 36.7 MiB (4%)\r\nLanguage : English\r\nEncoded date : UTC 2014-05-23 00:41:50\r\nTagged date : UTC 2014-05-23 00:41:50\r\n\r\nhd pornstars teens ryushare.com uploaded.net keep2share.cc fileom.com download porn movies clips