Hd quality – Teen sex video 3819

Teen Sex Movies 3822Free High Quality Sex Movies 3816

Posted in HD Porn, Pornstar, Sex Movies, Teen, Threesome | 11777 Views |


Rate this girl !!!




cover

\r\n

1920x1080p / WMV / 876.29 MB

\r\n

UPLOADED / RYUSHARE / FILEOM / KEEP2SHARE

\r\n \r\n

SCREENSHOTS:

\r\n

screens

\r\n



DOWNLOAD

Keep2share.cc - Uploaded.net - Openload.co - Rapidu.net


http://ul.to/k8emvjmk/Cock_Starved_Heads_HD.wmv
http://ryushare.com/0tt7qhvq9auv/Cock_Starved_Heads_HD.wmv
http://k2s.cc/file/5981038c39393/Cock_Starved_Heads_HD.wmv
http://fileom.com/c497p920fojy/Cock_Starved_Heads_HD.wmv.html


Premium here:
uploaded.net
keep2share.cc
rapidu.net.cc


Tags: ,

Teens related to Hd quality – Teen sex video 3819


Teen porn movies 224217 ryushare uploaded keep2share

Teen porn movies 224217

Teen Tits Tube, Young Girls Porn Videos 224313 ryushare uploaded keep2share

Teen Tits Tube, Young Girls Porn Videos 224313

xxx vid sex hd18 www ryushare uploaded keep2share

xxx vid sex hd18 www

Hot Teen Sex 224365 ryushare uploaded keep2share

Hot Teen Sex 224365

Alica – Quiet but deadly ryushare uploaded keep2share

Alica – Quiet but deadly

Teen porn movies 225220 ryushare uploaded keep2share

Teen porn movies 225220

Hd young videos 3757 ryushare uploaded keep2share

Hd young videos 3757

[Spizoo.com]  (Romi Rain Hires A Gigolo / 01.12.2016) ryushare uploaded keep2share

[Spizoo.com] (Romi Rain Hires A Gigolo / 01.12.2016)

Beata Undine – cumshot compilation ryushare uploaded keep2share

Beata Undine – cumshot compilation

Teen porn movies 224601 ryushare uploaded keep2share

Teen porn movies 224601

Hot Teen Sex 4324 ryushare uploaded keep2share

Hot Teen Sex 4324

Jessie Volt (K POV) B ryushare uploaded keep2share

Jessie Volt (K POV) B

Wow porn tube movies 4008 ryushare uploaded keep2share

Wow porn tube movies 4008

Teen Sex Porn Videos Free Nude Teens 3806 ryushare uploaded keep2share

Teen Sex Porn Videos Free Nude Teens 3806

Wow Porn Movies download) 224985 ryushare uploaded keep2share

Wow Porn Movies download) 224985

Hd young videos 2754 ryushare uploaded keep2share

Hd young videos 2754

HD Sex World Videos High Definition Free Porn 1997 ryushare uploaded keep2share

HD Sex World Videos High Definition Free Porn 1997

apetubegirls ryushare uploaded keep2share

apetubegirls

www xxx fusking high hd download 226692 ryushare uploaded keep2share

www xxx fusking high hd download 226692

Teena Dolly ryushare uploaded keep2share

Teena Dolly

Carmen Fox – Fucked by the best client ryushare uploaded keep2share

Carmen Fox – Fucked by the best client

Girls do porn in HD 225372 ryushare uploaded keep2share

Girls do porn in HD 225372

Hd quality – Teen sex video 223701 ryushare uploaded keep2share

Hd quality – Teen sex video 223701

teen xxx video hd dowalona ryushare uploaded keep2share

teen xxx video hd dowalona

Hardcore sex videos in the high definition quality 4529 ryushare uploaded keep2share

Hardcore sex videos in the high definition quality 4529

Taissia A – Bed of Roses ryushare uploaded keep2share

Taissia A – Bed of Roses

Mega – Time To Fuck – Episode 432 ryushare uploaded keep2share

Mega – Time To Fuck – Episode 432

Young Virgin Pussy Teen Fuck Tube 5513 ryushare uploaded keep2share

Young Virgin Pussy Teen Fuck Tube 5513

Teen porn movies 225314 ryushare uploaded keep2share

Teen porn movies 225314

Tube Young Sex 224260 ryushare uploaded keep2share

Tube Young Sex 224260

Hot sex girls movies download 2809 ryushare uploaded keep2share

Hot sex girls movies download 2809

download hd fucking video full 226558 ryushare uploaded keep2share

download hd fucking video full 226558

Babes.com Nataly Gold, Silvia Lauren – A guiding hand ryushare uploaded keep2share

Babes.com Nataly Gold, Silvia Lauren – A guiding hand

full hd 1020 ponr 226530 ryushare uploaded keep2share

full hd 1020 ponr 226530

Teen xxx sex hd 225800 ryushare uploaded keep2share

Teen xxx sex hd 225800

Report broken links / Post a comment

You must be logged in to post a comment.



General\r\nComplete name : D:hd tube amateur porn young girls sex direct download online movies clips ryushare.com uploaded.net keep2share.cc fileom.com streamcloud.eu allmyvideos.net ul.to download porn movies clips Cock_Starved_Heads_HD.wmv\r\nFormat : Windows Media\r\nFile size : 876 MiB\r\nDuration : 26mn 4s\r\nOverall bit rate mode : Variable\r\nOverall bit rate : 4 698 Kbps\r\nMaximum Overall bit rate : 5 876 Kbps\r\nEncoded date : UTC 2014-02-28 00:53:39.225\r\nSfOriginalFPS : 239760\r\n\r\nVideo\r\nID : 2\r\nFormat : VC-1\r\nFormat profile : [email protected]\r\nCodec ID : WMV3\r\nCodec ID/Info : Windows Media Video 9\r\nCodec ID/Hint : WMV3\r\nDescription of the codec : Windows Media Video 9 - Professional\r\nDuration : 26mn 4s\r\nBit rate mode : Variable\r\nBit rate : 4 482 Kbps\r\nWidth : 1 920 pixels\r\nHeight : 1 080 pixels\r\nDisplay aspect ratio : 16:9\r\nFrame rate : 23.976 fps\r\nColor space : YUV\r\nChroma subsampling : 4:2:0\r\nBit depth : 8 bits\r\nScan type : Progressive\r\nCompression mode : Lossy\r\nBits/(Pixel*Frame) : 0.090\r\nStream size : 836 MiB (95%)\r\nLanguage : Russian\r\n\r\nAudio\r\nID : 1\r\nFormat : WMA\r\nFormat profile : Pro\r\nCodec ID : 162\r\nCodec ID/Info : Windows Media Audio\r\nDescription of the codec : Windows Media Audio 10 Professional - 192 kbps, 44 kHz, 2 channel 16 bit (A/V) 1-pass CBR\r\nDuration : 26mn 4s\r\nBit rate mode : Constant\r\nBit rate : 192 Kbps\r\nChannel(s) : 2 channels\r\nSampling rate : 44.1 KHz\r\nBit depth : 16 bits\r\nStream size : 35.8 MiB (4%)\r\nLanguage : Russian\r\n\r\n\r\n\r\n\r\n UPLOADED / RYUSHARE / FILEOM / KEEP2SHARE\r\n\r\nhd pornstars teens ryushare.com uploaded.net keep2share.cc fileom.com streamcloud.eu allmyvideos.net ul.to download porn movies clips \r\n\r\n