Hd quality – Teen sex video 2175

Tube Young Sex 2186Hot Teen Sex HD videos 2172

Posted in HD Porn, Sex Movies, Teen | 11125 Views |


Rate this girl !!!




\r\n\r\n\r\n\r\n\r\n\r\n8.jpeg\r\n\r\n Link(3.45 Gb||55:53||1920*1080||WMV)



DOWNLOAD

Keep2share.cc - Uploaded.net - Openload.co - Rapidu.net


http://ryushare.com/jfflirv6wmqu/CSNGHXBNDmc.wmv
http://ul.to/v36evin6/CSNGHXBNDmc.wmv
http://k2s.cc/file/25d517be920f2/CSNGHXBNDmc.wmv


Premium here:
uploaded.net
keep2share.cc
rapidu.net.cc


Teens related to Hd quality – Teen sex video 2175


Hot Teen Sex 3611 ryushare uploaded keep2share

Hot Teen Sex 3611

HD Teens Sex Tube Videos XxX 4484 ryushare uploaded keep2share

HD Teens Sex Tube Videos XxX 4484

K Craving Lips 4 – CLIP A ryushare uploaded keep2share

K Craving Lips 4 – CLIP A

Amateur HD Porn Video 4576 ryushare uploaded keep2share

Amateur HD Porn Video 4576

Sweet Teen Porn – Young Porn Videos 224592 ryushare uploaded keep2share

Sweet Teen Porn – Young Porn Videos 224592

[MyFirstSexTeacher.com / NaughtyAmerica.com] Olivia Austin (01.12.2016) [Big Tits,Blonde,Blow Job,Bubble Butt,Caucasian,Cum on Tits,Deepthroating,High Heels,Outie Pussy,Shaved,Stockings,Tattoos,Titty Fucking, 1080p] ryushare uploaded keep2share

[MyFirstSexTeacher.com / NaughtyAmerica.com] Olivia Austin (01.12.2016) [Big Tits,Blonde,Blow Job,Bubble Butt,Caucasian,Cum on Tits,Deepthroating,High Heels,Outie Pussy,Shaved,Stockings,Tattoos,Titty Fucking, 1080p]

2016 hd vizyon sexy cd filmler ryushare uploaded keep2share

2016 hd vizyon sexy cd filmler

HD Porn Teen Sex Videos 2293 ryushare uploaded keep2share

HD Porn Teen Sex Videos 2293

High Definition Movies on HD 1894 ryushare uploaded keep2share

High Definition Movies on HD 1894

Teen porn movies 2556 ryushare uploaded keep2share

Teen porn movies 2556

Teen Sex Porn Videos Free Nude Teens 4683 ryushare uploaded keep2share

Teen Sex Porn Videos Free Nude Teens 4683

Teen sex xxx hd 2606 ryushare uploaded keep2share

Teen sex xxx hd 2606

Grace Hot Teen ryushare uploaded keep2share

Grace Hot Teen

www HD fuck vido 226084 ryushare uploaded keep2share

www HD fuck vido 226084

Free Porn Videos Xxx Movies Pussy Porn 1568 ryushare uploaded keep2share

Free Porn Videos Xxx Movies Pussy Porn 1568

YoungLegalPorn Bella Baby And Carla Cox Advanced Bonking ryushare uploaded keep2share

YoungLegalPorn Bella Baby And Carla Cox Advanced Bonking

valeria alexa xxx ryushare uploaded keep2share

valeria alexa xxx

Real Bushy Beavers 18 – Timea Bella ryushare uploaded keep2share

Real Bushy Beavers 18 – Timea Bella

Girls sex art hd teens videos 5549 ryushare uploaded keep2share

Girls sex art hd teens videos 5549

Teen porn movies 1954 ryushare uploaded keep2share

Teen porn movies 1954

High Definition Movies on HD 225588 ryushare uploaded keep2share

High Definition Movies on HD 225588

The best Teen sex 5166 ryushare uploaded keep2share

The best Teen sex 5166

Couple of angels ryushare uploaded keep2share

Couple of angels

Teen porn xxx 223828 ryushare uploaded keep2share

Teen porn xxx 223828

Teen Tits Tube, Young Girls Porn Videos 6209 ryushare uploaded keep2share

Teen Tits Tube, Young Girls Porn Videos 6209

sexHD videos mkv ryushare uploaded keep2share

sexHD videos mkv

www xxx hot 18 hd videos com ryushare uploaded keep2share

www xxx hot 18 hd videos com

21 sextury hd resimler 226581 ryushare uploaded keep2share

21 sextury hd resimler 226581

Teen Porn XXX Tube 225930 ryushare uploaded keep2share

Teen Porn XXX Tube 225930

HD sex movies downloads 3452 ryushare uploaded keep2share

HD sex movies downloads 3452

HD Teen Sex Tube 4748 ryushare uploaded keep2share

HD Teen Sex Tube 4748

Teens in Porno young porn videos and free teen sex 1672 ryushare uploaded keep2share

Teens in Porno young porn videos and free teen sex 1672

High Definition Movies on HD 4040 ryushare uploaded keep2share

High Definition Movies on HD 4040

HD Teens Sex Tube Videos XxX 223790 ryushare uploaded keep2share

HD Teens Sex Tube Videos XxX 223790

HD Sex World Videos High Definition Free Porn 224396 ryushare uploaded keep2share

HD Sex World Videos High Definition Free Porn 224396

Report broken links / Post a comment

You must be logged in to post a comment.



General\r\nComplete name : D:HD Teens Download Porn Sex clips movies TubeCSNGHXBNDmc.wmv\r\nFormat : Windows Media\r\nFile size : 3.45 GiB\r\nDuration : 55mn 53s\r\nOverall bit rate mode : Constant\r\nOverall bit rate : 8 834 Kbps\r\nMaximum Overall bit rate : 9 199 Kbps\r\nEncoded date : UTC 2013-07-31 22:47:12.125\r\n\r\nVideo\r\nID : 2\r\nFormat : VC-1\r\nFormat profile : [email protected]\r\nCodec ID : WMV3\r\nCodec ID/Info : Windows Media Video 9\r\nCodec ID/Hint : WMV3\r\nDescription of the codec : Windows Media Video 9 - Professional\r\nDuration : 55mn 53s\r\nBit rate mode : Constant\r\nBit rate : 9 000 Kbps\r\nWidth : 1 920 pixels\r\nHeight : 1 080 pixels\r\nDisplay aspect ratio : 16:9\r\nFrame rate : 29.970 fps\r\nColor space : YUV\r\nChroma subsampling : 4:2:0\r\nBit depth : 8 bits\r\nScan type : Progressive\r\nCompression mode : Lossy\r\nBits/(Pixel*Frame) : 0.145\r\nStream size : 3.51 GiB\r\n\r\nAudio\r\nID : 1\r\nFormat : WMA\r\nFormat version : Version 2\r\nCodec ID : 161\r\nCodec ID/Info : Windows Media Audio\r\nDescription of the codec : Windows Media Audio 9.2 - 128 kbps, 44 kHz, stereo 2-pass CBR\r\nDuration : 55mn 53s\r\nBit rate mode : Constant\r\nBit rate : 128 Kbps\r\nChannel(s) : 2 channels\r\nSampling rate : 44.1 KHz\r\nBit depth : 16 bits\r\nStream size : 51.2 MiB (1%)\r\n\r\n