Hd quality – Teen sex video 1289

Hot Teen Sex HD videos 1292High Definition Movies on HD 1283

Posted in Amateur, HD Porn, Sex Movies, Teen | 8430 Views |


Rate this girl !!!




\r\n\r\nhttp://img101.imagetwist.com/i/05182/wz6ixj6w1ho4.jpeg\r\n\r\n Link(468 Mb||20:42||960*540||WMV)



DOWNLOAD

Keep2share.cc - Uploaded.net - Openload.co - Rapidu.net


http://keep2share.cc/file/52efbd4fe8acc
http://ryushare.com/68fx1zbnri9f/GRSCMSlk.rar
http://ul.to/6xju5ru9


Premium here:
uploaded.net
keep2share.cc
rapidu.net.cc


Teens related to Hd quality – Teen sex video 1289


Hardcore Sex Hub 224903 ryushare uploaded keep2share

Hardcore Sex Hub 224903

Watch Teen Sex Videos HD 1207 ryushare uploaded keep2share

Watch Teen Sex Videos HD 1207

Hd xxxvidoes download com 226192 ryushare uploaded keep2share

Hd xxxvidoes download com 226192

HQ Sex Movies Download 224196 ryushare uploaded keep2share

HQ Sex Movies Download 224196

hd sex teen vidio 226777 ryushare uploaded keep2share

hd sex teen vidio 226777

Young XXX Tube Videos 225357 ryushare uploaded keep2share

Young XXX Tube Videos 225357

Izzy Delphine, Michelle, Caroline -The Big Adventure ryushare uploaded keep2share

Izzy Delphine, Michelle, Caroline -The Big Adventure

HD Teen Sex Tube 1346 ryushare uploaded keep2share

HD Teen Sex Tube 1346

Teen porn movies 4620 ryushare uploaded keep2share

Teen porn movies 4620

HD Porn Teen Sex Videos 4070 ryushare uploaded keep2share

HD Porn Teen Sex Videos 4070

Small girls and boys porn 4478 ryushare uploaded keep2share

Small girls and boys porn 4478

Rocco Orgy ryushare uploaded keep2share

Rocco Orgy

Porn teen hd downloads 224748 ryushare uploaded keep2share

Porn teen hd downloads 224748

www free hd virgin porn download com ryushare uploaded keep2share

www free hd virgin porn download com

xxx bf net 226291 ryushare uploaded keep2share

xxx bf net 226291

xxx vid sex hd18 www ryushare uploaded keep2share

xxx vid sex hd18 www

Teen Sex Movies 1141 ryushare uploaded keep2share

Teen Sex Movies 1141

HD Sex World Videos High Definition Free Porn 4540 ryushare uploaded keep2share

HD Sex World Videos High Definition Free Porn 4540

Young Sex Movies 4496 ryushare uploaded keep2share

Young Sex Movies 4496

Teenies Videos – Teen Porn, Teen Sex, XXX Free Videos 1152 ryushare uploaded keep2share

Teenies Videos – Teen Porn, Teen Sex, XXX Free Videos 1152

kylee wow girls porn tubes ryushare uploaded keep2share

kylee wow girls porn tubes

www full hd video fucking com ryushare uploaded keep2share

www full hd video fucking com

Watch Teen Sex Videos HD 2305 ryushare uploaded keep2share

Watch Teen Sex Videos HD 2305

caprice videos xxx ryushare uploaded keep2share

caprice videos xxx

Teens in Porno young porn videos and free teen sex 5409 ryushare uploaded keep2share

Teens in Porno young porn videos and free teen sex 5409

sex hd teen xxxxx 18 226086 ryushare uploaded keep2share

sex hd teen xxxxx 18 226086

daunloding sex xxx hd 226058 ryushare uploaded keep2share

daunloding sex xxx hd 226058

Teen Sex Movies 223765 ryushare uploaded keep2share

Teen Sex Movies 223765

sex hd video hai quality downlard 226504 ryushare uploaded keep2share

sex hd video hai quality downlard 226504

Remy’s Edging Orgasm Control ryushare uploaded keep2share

Remy’s Edging Orgasm Control

xxx skymovi com ryushare uploaded keep2share

xxx skymovi com

Wow Porn Movies download) 5153 ryushare uploaded keep2share

Wow Porn Movies download) 5153

Hot Teen Sex 4722 ryushare uploaded keep2share

Hot Teen Sex 4722

Teen Sex Videos Tube Movies 4833 ryushare uploaded keep2share

Teen Sex Videos Tube Movies 4833

SpinChix mp4 226131 ryushare uploaded keep2share

SpinChix mp4 226131

Report broken links / Post a comment

You must be logged in to post a comment.



General\r\nComplete name : D:HD TeenMania Porn Sex videos.xxxGRSCMSlkGRSCMSlk.wmv\r\nFormat : Windows Media\r\nFile size : 468 MiB\r\nDuration : 20mn 42s\r\nOverall bit rate mode : Constant\r\nOverall bit rate : 3 159 Kbps\r\nMaximum Overall bit rate : 3 172 Kbps\r\nEncoded date : UTC 2010-06-01 23:39:50.359\r\nSfOriginalFPS : 250000\r\n\r\nVideo\r\nID : 2\r\nFormat : VC-1\r\nFormat profile : [email protected]\r\nCodec ID : WMV3\r\nCodec ID/Info : Windows Media Video 9\r\nCodec ID/Hint : WMV3\r\nDescription of the codec : Windows Media Video 9 - Professional\r\nDuration : 20mn 42s\r\nBit rate mode : Constant\r\nBit rate : 3 130 Kbps\r\nWidth : 960 pixels\r\nHeight : 540 pixels\r\nDisplay aspect ratio : 16:9\r\nFrame rate : 25.000 fps\r\nColor space : YUV\r\nChroma subsampling : 4:2:0\r\nBit depth : 8 bits\r\nScan type : Progressive\r\nCompression mode : Lossy\r\nBits/(Pixel*Frame) : 0.241\r\nStream size : 463 MiB (99%)\r\nLanguage : Russian\r\n\r\nAudio\r\nID : 1\r\nFormat : WMA\r\nFormat version : Version 2\r\nCodec ID : 161\r\nCodec ID/Info : Windows Media Audio\r\nDescription of the codec : Windows Media Audio 9.2 - 16 kbps, 22 kHz, mono (A/V) 1-pass CBR\r\nDuration : 20mn 42s\r\nBit rate mode : Constant\r\nBit rate : 16.0 Kbps\r\nChannel(s) : 1 channel\r\nSampling rate : 22.05 KHz\r\nBit depth : 16 bits\r\nStream size : 2.37 MiB (1%)\r\nLanguage : Russian\r\n\r\n