HD Porn Videos 2925

Teen Sex Movies Young Porn Tube Vids 2930Hot sex girls movies download 2920

Posted in HD Porn, Pornstar, Sex Movies, Teen | 8236 Views |


Rate this girl !!!




\r\n\r\n\r\n4.jpg\r\n\r\nLink(695 Mb||23:19||1280*720||WMV)



DOWNLOAD

Keep2share.cc - Uploaded.net - Openload.co - Rapidu.net


http://k2s.cc/file/61b0cdd87acd5/NRSCYNcl.wmv
http://ryushare.com/odvru8xbejqx/NRSCYNcl.wmv
http://ul.to/joi4kju8/NRSCYNcl.wmv


Premium here:
uploaded.net
keep2share.cc
rapidu.net.cc


Teens related to HD Porn Videos 2925


HD Teens Sex Tube Videos XxX 225345 ryushare uploaded keep2share

HD Teens Sex Tube Videos XxX 225345

18OnlyGirls Nikita (Gina Devine) Here I Cum! ryushare uploaded keep2share

18OnlyGirls Nikita (Gina Devine) Here I Cum!

8 Teen XXX – Teen Sex 224449 ryushare uploaded keep2share

8 Teen XXX – Teen Sex 224449

Teen Porn XXX Tube 224497 ryushare uploaded keep2share

Teen Porn XXX Tube 224497

College Teen Sex 225537 ryushare uploaded keep2share

College Teen Sex 225537

Sweet Teen Porn – Young Porn Videos 224494 ryushare uploaded keep2share

Sweet Teen Porn – Young Porn Videos 224494

Teen porn xxx 224460 ryushare uploaded keep2share

Teen porn xxx 224460

Teen porn movies 1607 ryushare uploaded keep2share

Teen porn movies 1607

TeenLustHD com ryushare uploaded keep2share

TeenLustHD com

sex bf movies hd com 226379 ryushare uploaded keep2share

sex bf movies hd com 226379

pc hd fucking clip 226607 ryushare uploaded keep2share

pc hd fucking clip 226607

Hd young videos 5293 ryushare uploaded keep2share

Hd young videos 5293

Candice Dare – Shopping Spree ryushare uploaded keep2share

Candice Dare – Shopping Spree

Hot sex girls movies download 2809 ryushare uploaded keep2share

Hot sex girls movies download 2809

21Naturals.com Chirsten, Inner beauty ryushare uploaded keep2share

21Naturals.com Chirsten, Inner beauty

breezer hd porn video 226339 ryushare uploaded keep2share

breezer hd porn video 226339

Jenny Simons – At The Right Time ryushare uploaded keep2share

Jenny Simons – At The Right Time

PRONO SEX VIDEO ryushare uploaded keep2share

PRONO SEX VIDEO

Kennedy Leigh – Out With A Bang ryushare uploaded keep2share

Kennedy Leigh – Out With A Bang

HD Sex World Videos High Definition Free Porn 1997 ryushare uploaded keep2share

HD Sex World Videos High Definition Free Porn 1997

Young XXX Tube Videos 2696 ryushare uploaded keep2share

Young XXX Tube Videos 2696

hd porn videos in England 226222 ryushare uploaded keep2share

hd porn videos in England 226222

Teen Tits Tube, Young Girls Porn Videos 3672 ryushare uploaded keep2share

Teen Tits Tube, Young Girls Porn Videos 3672

Teen Sex Movies Young Porn Tube Vids 224048 ryushare uploaded keep2share

Teen Sex Movies Young Porn Tube Vids 224048

HD sex movies downloads 3866 ryushare uploaded keep2share

HD sex movies downloads 3866

Young XXX Tube Videos 224031 ryushare uploaded keep2share

Young XXX Tube Videos 224031

new pussy xxx 226162 ryushare uploaded keep2share

new pussy xxx 226162

Hot Tina, Kayla Green – Lessons in Lust ryushare uploaded keep2share

Hot Tina, Kayla Green – Lessons in Lust

yang garls boy xxx ryushare uploaded keep2share

yang garls boy xxx

Pretty skinny girl in casting video ryushare uploaded keep2share

Pretty skinny girl in casting video

Teen Sex Videos Tube Movies 3941 ryushare uploaded keep2share

Teen Sex Videos Tube Movies 3941

very hot pron 226721 ryushare uploaded keep2share

very hot pron 226721

Hardcore sex videos in the high definition quality 1260 ryushare uploaded keep2share

Hardcore sex videos in the high definition quality 1260

xxxxsexvideo 226647 ryushare uploaded keep2share

xxxxsexvideo 226647

2016 hd vizyon sexy cd filmler ryushare uploaded keep2share

2016 hd vizyon sexy cd filmler

Report broken links / Post a comment

You must be logged in to post a comment.



General\r\nComplete name : D:HD Porn Teens Sex movies tube online downloadNRSCYNcl.wmv\r\nFormat : Windows Media\r\nFile size : 695 MiB\r\nDuration : 23mn 19s\r\nOverall bit rate mode : Constant\r\nOverall bit rate : 4 166 Kbps\r\nMaximum Overall bit rate : 4 633 Kbps\r\nEncoded date : UTC 2013-03-01 18:46:11.518\r\nCopyright : 21sextury.com\r\n\r\nVideo\r\nID : 2\r\nFormat : VC-1\r\nFormat profile : [email protected]\r\nCodec ID : WMV3\r\nCodec ID/Info : Windows Media Video 9\r\nCodec ID/Hint : WMV3\r\nDescription of the codec : Windows Media Video 9 - Professional\r\nDuration : 23mn 19s\r\nBit rate mode : Constant\r\nBit rate : 4 500 Kbps\r\nWidth : 1 280 pixels\r\nHeight : 720 pixels\r\nDisplay aspect ratio : 16:9\r\nFrame rate : 25.000 fps\r\nColor space : YUV\r\nChroma subsampling : 4:2:0\r\nBit depth : 8 bits\r\nScan type : Progressive\r\nCompression mode : Lossy\r\nBits/(Pixel*Frame) : 0.195\r\nStream size : 751 MiB\r\nLanguage : English (US)\r\n\r\nAudio\r\nID : 1\r\nFormat : WMA\r\nFormat version : Version 2\r\nCodec ID : 161\r\nCodec ID/Info : Windows Media Audio\r\nDescription of the codec : Windows Media Audio 9.2 - 96 kbps, 44 kHz, stereo 1-pass CBR\r\nDuration : 23mn 19s\r\nBit rate mode : Constant\r\nBit rate : 96.0 Kbps\r\nChannel(s) : 2 channels\r\nSampling rate : 44.1 KHz\r\nBit depth : 16 bits\r\nStream size : 16.0 MiB (2%)\r\nLanguage : English (US)\r\n\r\n