HD Porn Videos 1960

Hardcore Sex Hub 1963Teen Porn XXX Tube 1957

Posted in Amateur, HD Porn, Sex Movies, Teen, Threesome | 9544 Views |


Rate this girl !!!




\r\n\r\nhttp://img55.imagetwist.com/i/05128/53uiwxp64d6k.jpeg\r\n\r\n Link(986 Mb||18:22||1920*1080||MPG)



DOWNLOAD

Keep2share.cc - Uploaded.net - Openload.co - Rapidu.net


http://ul.to/cglb7yn9
http://ryushare.com/awp1iq6yq7dh/TNBNSHYlr.rar
http://keep2share.cc/file/6738b0f4e51b9


Premium here:
uploaded.net
keep2share.cc
rapidu.net.cc


Teens related to HD Porn Videos 1960


Teen sex xxx hd 4852 ryushare uploaded keep2share

Teen sex xxx hd 4852

Russian amateur – Home Sex ryushare uploaded keep2share

Russian amateur – Home Sex

Linda S – YES Girl ryushare uploaded keep2share

Linda S – YES Girl

Nubilefilms.com Elena Rae – Russian Beauty ryushare uploaded keep2share

Nubilefilms.com Elena Rae – Russian Beauty

Good Teen Tube Sexy Young Naked Girls Movies 224024 ryushare uploaded keep2share

Good Teen Tube Sexy Young Naked Girls Movies 224024

Download young porn sex 223839 ryushare uploaded keep2share

Download young porn sex 223839

Wow Girls Porn Clips download 224386 ryushare uploaded keep2share

Wow Girls Porn Clips download 224386

Teen Sex Videos Tube Movies 224998 ryushare uploaded keep2share

Teen Sex Videos Tube Movies 224998

HD Porn Video 1358 ryushare uploaded keep2share

HD Porn Video 1358

Alyona, Klara & Paloma – Strap-on Adventure ryushare uploaded keep2share

Alyona, Klara & Paloma – Strap-on Adventure

xxx full hq poharn vido downlod 226036 ryushare uploaded keep2share

xxx full hq poharn vido downlod 226036

HD Sex World Videos High Definition Free Porn 1623 ryushare uploaded keep2share

HD Sex World Videos High Definition Free Porn 1623

xxx garls and boys 226650 ryushare uploaded keep2share

xxx garls and boys 226650

MP4 Russian blonde teen sex download video ryushare uploaded keep2share

MP4 Russian blonde teen sex download video

Hardcore sex videos in the high definition quality 5296 ryushare uploaded keep2share

Hardcore sex videos in the high definition quality 5296

Chelsy Sun & Thomas Lee – Play With Me ryushare uploaded keep2share

Chelsy Sun & Thomas Lee – Play With Me

Movies Young legal porn 4979 ryushare uploaded keep2share

Movies Young legal porn 4979

Hot amateur ryushare uploaded keep2share

Hot amateur

Two Boys & One Girl – X-Art ryushare uploaded keep2share

Two Boys & One Girl – X-Art

Amateur Teen Sex 4995 ryushare uploaded keep2share

Amateur Teen Sex 4995

High Definition Movies on HD 1647 ryushare uploaded keep2share

High Definition Movies on HD 1647

Porno movies young teens lesbian 224977 ryushare uploaded keep2share

Porno movies young teens lesbian 224977

virgin girl sex hd free 226524 ryushare uploaded keep2share

virgin girl sex hd free 226524

Girls do porn in HD 224304 ryushare uploaded keep2share

Girls do porn in HD 224304

Gina Gerson – A Dream Of You ryushare uploaded keep2share

Gina Gerson – A Dream Of You

Teen Sex Movies 2122 ryushare uploaded keep2share

Teen Sex Movies 2122

barazzar hd fuck com 226325 ryushare uploaded keep2share

barazzar hd fuck com 226325

Hd teen party porn pics 226613 ryushare uploaded keep2share

Hd teen party porn pics 226613

89 hd sex videos in 226208 ryushare uploaded keep2share

89 hd sex videos in 226208

Teen Tits Tube, Young Girls Porn Videos 224313 ryushare uploaded keep2share

Teen Tits Tube, Young Girls Porn Videos 224313

Young teens tube hot girls free porn video 225076 ryushare uploaded keep2share

Young teens tube hot girls free porn video 225076

Hd quality – Teen sex video 2401 ryushare uploaded keep2share

Hd quality – Teen sex video 2401

Brandy Naughty – First Time Auditions ryushare uploaded keep2share

Brandy Naughty – First Time Auditions

Jane Classy & Alexis Crystal ryushare uploaded keep2share

Jane Classy & Alexis Crystal

Teen Tits Tube, Young Girls Porn Videos 225965 ryushare uploaded keep2share

Teen Tits Tube, Young Girls Porn Videos 225965

Report broken links / Post a comment

You must be logged in to post a comment.



General\r\nComplete name : D:HD Teens Download Porn Sex clips movies Tube.xxxTNBNSHYlrTNBNSHYlr.mpg\r\nFormat : MPEG-PS\r\nFile size : 986 MiB\r\nDuration : 18mn 22s\r\nOverall bit rate mode : Variable\r\nOverall bit rate : 7 500 Kbps\r\n\r\nVideo\r\nID : 224 (0xE0)\r\nFormat : MPEG Video\r\nFormat version : Version 1\r\nFormat settings, BVOP : No\r\nFormat settings, Matrix : Default\r\nFormat settings, GOP : N=12\r\nDuration : 18mn 22s\r\nBit rate mode : Variable\r\nBit rate : 7 223 Kbps\r\nWidth : 1 920 pixels\r\nHeight : 1 080 pixels\r\nDisplay aspect ratio : 16:9\r\nFrame rate : 24.000 fps\r\nColor space : YUV\r\nChroma subsampling : 4:2:0\r\nBit depth : 8 bits\r\nScan type : Progressive\r\nCompression mode : Lossy\r\nBits/(Pixel*Frame) : 0.145\r\nTime code of first frame : 00:00:00:00\r\nTime code source : Group of pictures header\r\nStream size : 949 MiB (96%)\r\n\r\nAudio\r\nID : 192 (0xC0)\r\nFormat : MPEG Audio\r\nFormat version : Version 1\r\nFormat profile : Layer 2\r\nDuration : 18mn 22s\r\nBit rate mode : Constant\r\nBit rate : 128 Kbps\r\nChannel(s) : 2 channels\r\nSampling rate : 48.0 KHz\r\nCompression mode : Lossy\r\nStream size : 16.8 MiB (2%)\r\n\r\n