HD Porn Videos 1476

HD Porn Teen Sex Videos 1479Young Virgin Pussy Teen Fuck Tube 1473

Posted in Amateur, HD Porn, Sex Movies, Teen, Threesome | 11416 Views |


Rate this girl !!!




\r\n\r\nhttp://img102.imagetwist.com/i/05223/gvoavba2lpw4.jpeg\r\n\r\n Link(518 Mb||22:45||720*576||WMV)



DOWNLOAD

Keep2share.cc - Uploaded.net - Openload.co - Rapidu.net


http://keep2share.cc/file/ff1d82050b4ad
http://ryushare.com/c3c2zs30m2rd/TNSMVSvt.rar
http://ul.to/kxho2twj


Premium here:
uploaded.net
keep2share.cc
rapidu.net.cc


Teens related to HD Porn Videos 1476


High Definition Movies on HD Teen Porn XXX Tube 1192 ryushare uploaded keep2share

High Definition Movies on HD Teen Porn XXX Tube 1192

descargar cindy_96 226727 ryushare uploaded keep2share

descargar cindy_96 226727

Young XXX Tube Videos 224031 ryushare uploaded keep2share

Young XXX Tube Videos 224031

I Like Old Dick In My Teeny Ass – Ivana Sugar ryushare uploaded keep2share

I Like Old Dick In My Teeny Ass – Ivana Sugar

HQ Sex Movies Download 4226 ryushare uploaded keep2share

HQ Sex Movies Download 4226

HQ Sex Movies Download 5339 ryushare uploaded keep2share

HQ Sex Movies Download 5339

Hot Teen Sex 5051 ryushare uploaded keep2share

Hot Teen Sex 5051

free sex movies ppran ryushare uploaded keep2share

free sex movies ppran

Daria – Clinic Sex ryushare uploaded keep2share

Daria – Clinic Sex

HD Porn Video 5646 ryushare uploaded keep2share

HD Porn Video 5646

The best Teen sex 223940 ryushare uploaded keep2share

The best Teen sex 223940

Hot Teen Sex HD videos 225101 ryushare uploaded keep2share

Hot Teen Sex HD videos 225101

Wow porn tube movies 4986 ryushare uploaded keep2share

Wow porn tube movies 4986

HD porn uploaded 3712 ryushare uploaded keep2share

HD porn uploaded 3712

Sweet Teen Porn – Young Porn Videos 1653 ryushare uploaded keep2share

Sweet Teen Porn – Young Porn Videos 1653

Teen Sex Movies Young Porn Tube Vids 224048 ryushare uploaded keep2share

Teen Sex Movies Young Porn Tube Vids 224048

18 years girl xxx sex videos 2603 ryushare uploaded keep2share

18 years girl xxx sex videos 2603

Teen porn movies 1460 ryushare uploaded keep2share

Teen porn movies 1460

Sweet Teen Porn – Young Porn Videos 224812 ryushare uploaded keep2share

Sweet Teen Porn – Young Porn Videos 224812

HQ Sex Movies Download 4625 ryushare uploaded keep2share

HQ Sex Movies Download 4625

Free Teen Porn Videos at Teen Sex Tube XXX 3477 ryushare uploaded keep2share

Free Teen Porn Videos at Teen Sex Tube XXX 3477

Hot Teen Sex HD videos 2678 ryushare uploaded keep2share

Hot Teen Sex HD videos 2678

Cadence – Sex Massage ryushare uploaded keep2share

Cadence – Sex Massage

Castingcouch-X.com Kaylee Haze ryushare uploaded keep2share

Castingcouch-X.com Kaylee Haze

Teen xxx sex hd 224959 ryushare uploaded keep2share

Teen xxx sex hd 224959

Teen porn movies 225435 ryushare uploaded keep2share

Teen porn movies 225435

HD Teens Sex Tube Videos XxX 1157 ryushare uploaded keep2share

HD Teens Sex Tube Videos XxX 1157

Viola Paige – Intense Feelings ryushare uploaded keep2share

Viola Paige – Intense Feelings

HD Porn Videos 4330 ryushare uploaded keep2share

HD Porn Videos 4330

ساريه السواس افلامsexx sexx xxxxxx xxx 226756 ryushare uploaded keep2share

ساريه السواس افلامsexx sexx xxxxxx xxx 226756

Babes.com Nataly Gold, Silvia Lauren – A guiding hand ryushare uploaded keep2share

Babes.com Nataly Gold, Silvia Lauren – A guiding hand

Young XXX Tube Videos 1801 ryushare uploaded keep2share

Young XXX Tube Videos 1801

Tube Young Sex 224260 ryushare uploaded keep2share

Tube Young Sex 224260

21Naturals.com Kiara Lord – Strings of passion ryushare uploaded keep2share

21Naturals.com Kiara Lord – Strings of passion

Adele Sunshine – George on Adele ryushare uploaded keep2share

Adele Sunshine – George on Adele

Report broken links / Post a comment

You must be logged in to post a comment.



General\r\nComplete name : D:HD Teens Download Porn Sex clips movies Tube.xxxTNSMVSvtTNSMVSvt.wmv\r\nFormat : Windows Media\r\nFile size : 518 MiB\r\nDuration : 22mn 45s\r\nOverall bit rate mode : Constant\r\nOverall bit rate : 3 182 Kbps\r\nMaximum Overall bit rate : 3 195 Kbps\r\nPerformer : Royal-cash.com\r\nEncoded date : UTC 2009-03-12 16:51:33.820\r\nCopyright : Royal-cash.com\r\n\r\nVideo\r\nID : 2\r\nFormat : VC-1\r\nFormat profile : [email protected]\r\nCodec ID : WMV3\r\nCodec ID/Info : Windows Media Video 9\r\nCodec ID/Hint : WMV3\r\nDescription of the codec : Windows Media Video 9 - Professional\r\nDuration : 22mn 45s\r\nBit rate mode : Constant\r\nBit rate : 3 072 Kbps\r\nWidth : 720 pixels\r\nHeight : 576 pixels\r\nDisplay aspect ratio : 5:4\r\nFrame rate : 29.970 fps\r\nStandard : PAL\r\nColor space : YUV\r\nChroma subsampling : 4:2:0\r\nBit depth : 8 bits\r\nScan type : Progressive\r\nCompression mode : Lossy\r\nBits/(Pixel*Frame) : 0.247\r\nStream size : 500 MiB (97%)\r\nLanguage : English\r\n\r\nAudio\r\nID : 1\r\nFormat : WMA\r\nFormat version : Version 2\r\nCodec ID : 161\r\nCodec ID/Info : Windows Media Audio\r\nDescription of the codec : Windows Media Audio 9.1 - 96 kbps, 44 kHz, stereo 1-pass CBR\r\nDuration : 22mn 45s\r\nBit rate mode : Constant\r\nBit rate : 96.0 Kbps\r\nChannel(s) : 2 channels\r\nSampling rate : 44.1 KHz\r\nBit depth : 16 bits\r\nStream size : 15.6 MiB (3%)\r\nLanguage : English\r\n\r\n\r\n