HD Porn Videos 1376

Good Teen Tube Sexy Young Naked Girls Movies 1380Hot Teen Sex HD videos 1371

Posted in Amateur, HD Porn, Sex Movies, Teen | 19769 Views |


Rate this girl !!!




\r\n\r\n\r\nhttp://img102.imagetwist.com/i/05200/xn06aghyge01.jpg\r\n\r\n Link(993 Mb||29:10||1280*720||WMV)



DOWNLOAD

Keep2share.cc - Uploaded.net - Openload.co - Rapidu.net


http://ul.to/uj4ajm5e
http://ryushare.com/yvh5pd3vzhnb/BGRSJStn.rar
http://keep2share.cc/file/a0c9ce18cb1f6


Premium here:
uploaded.net
keep2share.cc
rapidu.net.cc


Teens related to HD Porn Videos 1376


Teenage Fuck Clips 4414 ryushare uploaded keep2share

Teenage Fuck Clips 4414

www xxx18yeras movie hot 226733 ryushare uploaded keep2share

www xxx18yeras movie hot 226733

Wow porn tube movies 223856 ryushare uploaded keep2share

Wow porn tube movies 223856

HD Porn Videos 2135 ryushare uploaded keep2share

HD Porn Videos 2135

High Definition Movies on HD Teen Porn XXX Tube 1249 ryushare uploaded keep2share

High Definition Movies on HD Teen Porn XXX Tube 1249

teen sikişifilimi 226009 ryushare uploaded keep2share

teen sikişifilimi 226009

Upload Hdxxx short videos ryushare uploaded keep2share

Upload Hdxxx short videos

HD Teens Sex Tube Videos XxX 225345 ryushare uploaded keep2share

HD Teens Sex Tube Videos XxX 225345

Good Teen Tube Sexy Young Naked Girls Movies 2157 ryushare uploaded keep2share

Good Teen Tube Sexy Young Naked Girls Movies 2157

1By-Day.com Danika – Undercover Banana ryushare uploaded keep2share

1By-Day.com Danika – Undercover Banana

Whitney Conroy & Alexis Crystal – Sheets In The Wind ryushare uploaded keep2share

Whitney Conroy & Alexis Crystal – Sheets In The Wind

Teen porn movies 224601 ryushare uploaded keep2share

Teen porn movies 224601

Alexis Brill A Dose Of Pantyhose ryushare uploaded keep2share

Alexis Brill A Dose Of Pantyhose

Young teens tube hot girls free porn video 224027 ryushare uploaded keep2share

Young teens tube hot girls free porn video 224027

Fucking girl in stockings ryushare uploaded keep2share

Fucking girl in stockings

HD Porn Videos 4330 ryushare uploaded keep2share

HD Porn Videos 4330

Girls do porn in HD 224007 ryushare uploaded keep2share

Girls do porn in HD 224007

Low mb full hd sex video download 226510 ryushare uploaded keep2share

Low mb full hd sex video download 226510

Nude Teens fucking hard 225375 ryushare uploaded keep2share

Nude Teens fucking hard 225375

teens sex vidio indir 226595 ryushare uploaded keep2share

teens sex vidio indir 226595

Porn HD Sex HD Teen Sex 225967 ryushare uploaded keep2share

Porn HD Sex HD Teen Sex 225967

LegalPorno.com] Rebecca Black takes 3 cocks in ryushare uploaded keep2share

LegalPorno.com] Rebecca Black takes 3 cocks in

Masha – Fucking like elite whore ryushare uploaded keep2share

Masha – Fucking like elite whore

Kiki Vidis ryushare uploaded keep2share

Kiki Vidis

Wow porn tube movies 4008 ryushare uploaded keep2share

Wow porn tube movies 4008

8 Teen XXX – Teen Sex 1309 ryushare uploaded keep2share

8 Teen XXX – Teen Sex 1309

Free Young Porn Videos XXX Teen Porn 5149 ryushare uploaded keep2share

Free Young Porn Videos XXX Teen Porn 5149

Young XXX Tube Videos 3564 ryushare uploaded keep2share

Young XXX Tube Videos 3564

Wow porn hd downloads 224041 ryushare uploaded keep2share

Wow porn hd downloads 224041

Wow porn tube movies 4671 ryushare uploaded keep2share

Wow porn tube movies 4671

HQ Sex Movies Download 224642 ryushare uploaded keep2share

HQ Sex Movies Download 224642

hd images fucking sex 226738 ryushare uploaded keep2share

hd images fucking sex 226738

Teens fucked doggy style ryushare uploaded keep2share

Teens fucked doggy style

Wow porn tube movies 4493 ryushare uploaded keep2share

Wow porn tube movies 4493

Jenny Glam – Who’s My Good Girl? ryushare uploaded keep2share

Jenny Glam – Who’s My Good Girl?

Report broken links / Post a comment

You must be logged in to post a comment.



General\r\nComplete name : D:HD Teens Tube Download Porn Sex clips movies.xxxBGRSJStnBGRSJStn.wmv\r\nFormat : Windows Media\r\nFile size : 993 MiB\r\nDuration : 29mn 10s\r\nOverall bit rate mode : Constant\r\nOverall bit rate : 4 756 Kbps\r\nMaximum Overall bit rate : 4 774 Kbps\r\nPerformer : Royal-Cash.com\r\nEncoded date : UTC 2011-05-16 10:32:46.670\r\nCopyright : Royal-Cash.com\r\n\r\nVideo\r\nID : 2\r\nFormat : VC-1\r\nFormat profile : [email protected]\r\nCodec ID : WMV3\r\nCodec ID/Info : Windows Media Video 9\r\nCodec ID/Hint : WMV3\r\nDescription of the codec : Windows Media Video 9 - Professional\r\nDuration : 29mn 10s\r\nBit rate mode : Constant\r\nBit rate : 4 608 Kbps\r\nWidth : 1 280 pixels\r\nHeight : 720 pixels\r\nDisplay aspect ratio : 16:9\r\nFrame rate : 25.000 fps\r\nColor space : YUV\r\nChroma subsampling : 4:2:0\r\nBit depth : 8 bits\r\nScan type : Progressive\r\nCompression mode : Lossy\r\nBits/(Pixel*Frame) : 0.200\r\nStream size : 962 MiB (97%)\r\nLanguage : English (US)\r\nNumberOfFrames : 43761\r\n\r\nAudio\r\nID : 1\r\nFormat : WMA\r\nFormat version : Version 2\r\nCodec ID : 161\r\nCodec ID/Info : Windows Media Audio\r\nDescription of the codec : Windows Media Audio 9.1 - 128 kbps, 44 kHz, stereo 1-pass CBR\r\nDuration : 29mn 10s\r\nBit rate mode : Constant\r\nBit rate : 128 Kbps\r\nChannel(s) : 2 channels\r\nSampling rate : 44.1 KHz\r\nBit depth : 16 bits\r\nStream size : 26.7 MiB (3%)\r\nLanguage : English (US)\r\nNumberOfFrames : 4715\r\n\r\n