HD porn uploaded 3712

Sex Teens porn movies 3718Free Teen Porn Videos at Teen Sex Tube XXX 3711

Posted in Amateur, HD Porn, Sex Movies, Teen | 7331 Views |


Rate this girl !!!




\r\n\r\n



DOWNLOAD

Keep2share.cc - Uploaded.net - Openload.co - Rapidu.net


http://ryushare.com/la7ngalf8o7i/RTCGS.Rly.mp4
http://ul.to/ok1400vt/RTCGS.Rly.mp4
http://fileom.com/yngn7wuaguf4/RTCGS.Rly.mp4.html
http://k2s.cc/file/9fc1e90f18bf9/RTCGS.Rly.mp4


Premium here:
uploaded.net
keep2share.cc
rapidu.net.cc


Teens related to HD porn uploaded 3712


21 sextury hd resimler 226581 ryushare uploaded keep2share

21 sextury hd resimler 226581

21Naturals.com Ava Dalush – Puppeteer ryushare uploaded keep2share

21Naturals.com Ava Dalush – Puppeteer

HD Porn Video 1358 ryushare uploaded keep2share

HD Porn Video 1358

Tube Young Sex 1390 ryushare uploaded keep2share

Tube Young Sex 1390

Sweet Teen Porn – Young Porn Videos 224494 ryushare uploaded keep2share

Sweet Teen Porn – Young Porn Videos 224494

Teen porn movies 2618 ryushare uploaded keep2share

Teen porn movies 2618

Good Teen Tube Sexy Young Naked Girls Movies 2157 ryushare uploaded keep2share

Good Teen Tube Sexy Young Naked Girls Movies 2157

Young Sex Movies 1507 ryushare uploaded keep2share

Young Sex Movies 1507

HD Porn Teen Sex Videos 2182 ryushare uploaded keep2share

HD Porn Teen Sex Videos 2182

[RylskyArt.com] Gia – Shadows ryushare uploaded keep2share

[RylskyArt.com] Gia – Shadows

Amateur teen summer sex movies 4816 ryushare uploaded keep2share

Amateur teen summer sex movies 4816

Hot Teen Sex 225798 ryushare uploaded keep2share

Hot Teen Sex 225798

www sexvideo hd1280 226502 ryushare uploaded keep2share

www sexvideo hd1280 226502

tits free ryushare uploaded keep2share

tits free

Teen Sex Porn Videos Free Nude Teens 225724 ryushare uploaded keep2share

Teen Sex Porn Videos Free Nude Teens 225724

Hardcore Sex Hub 3273 ryushare uploaded keep2share

Hardcore Sex Hub 3273

H D SEXI VIDEO com 226526 ryushare uploaded keep2share

H D SEXI VIDEO com 226526

Fucked by two cocks in all holes ryushare uploaded keep2share

Fucked by two cocks in all holes

Free Teen Porn – Redhair teen XXX ryushare uploaded keep2share

Free Teen Porn – Redhair teen XXX

1080P full hd hordcore sex movies ryushare uploaded keep2share

1080P full hd hordcore sex movies

Porn HQ Movei free downlode ryushare uploaded keep2share

Porn HQ Movei free downlode

Watch Teen Sex Videos HD 225256 ryushare uploaded keep2share

Watch Teen Sex Videos HD 225256

Free Teen Porn Videos at Teen Sex Tube XXX 5546 ryushare uploaded keep2share

Free Teen Porn Videos at Teen Sex Tube XXX 5546

HD Porn Videos 225943 ryushare uploaded keep2share

HD Porn Videos 225943

Wow Girls Porn Clips download 224521 ryushare uploaded keep2share

Wow Girls Porn Clips download 224521

Sex with my blonde ex girlfriend ryushare uploaded keep2share

Sex with my blonde ex girlfriend

HD Sex World Videos High Definition Free Porn 225951 ryushare uploaded keep2share

HD Sex World Videos High Definition Free Porn 225951

Free Teen Porn Videos at Teen Sex Tube XXX 225611 ryushare uploaded keep2share

Free Teen Porn Videos at Teen Sex Tube XXX 225611

teen pornosu indir mp4 ryushare uploaded keep2share

teen pornosu indir mp4

HD Porn Videos 224706 ryushare uploaded keep2share

HD Porn Videos 224706

Young Sex Movies 225730 ryushare uploaded keep2share

Young Sex Movies 225730

Hd 89xxx vedios com 226476 ryushare uploaded keep2share

Hd 89xxx vedios com 226476

K Three Teasing Tongues 5 -B ryushare uploaded keep2share

K Three Teasing Tongues 5 -B

Teen porn xxx 225534 ryushare uploaded keep2share

Teen porn xxx 225534

Hardcore sex videos in the high definition quality 225971 ryushare uploaded keep2share

Hardcore sex videos in the high definition quality 225971

Report broken links / Post a comment

You must be logged in to post a comment.



General\r\nComplete name : D:hd pornstars teens ryushare.com uploaded.net keep2share.cc fileom.com download porn movies clips RTCGS.Rly.mp4\r\nFormat : MPEG-4\r\nFormat profile : Base Media\r\nCodec ID : isom\r\nFile size : 945 MiB\r\nDuration : 26mn 35s\r\nOverall bit rate mode : Variable\r\nOverall bit rate : 4 968 Kbps\r\nEncoded date : UTC 1970-01-01 00:00:00\r\nTagged date : UTC 1970-01-01 00:00:00\r\nWriting application : Lavf52.93.0\r\n\r\nVideo\r\nID : 1\r\nFormat : AVC\r\nFormat/Info : Advanced Video Codec\r\nFormat profile : [email protected]\r\nFormat settings, CABAC : Yes\r\nFormat settings, ReFrames : 4 frames\r\nCodec ID : avc1\r\nCodec ID/Info : Advanced Video Coding\r\nDuration : 26mn 35s\r\nBit rate : 4 800 Kbps\r\nWidth : 1 280 pixels\r\nHeight : 720 pixels\r\nDisplay aspect ratio : 16:9\r\nFrame rate mode : Constant\r\nFrame rate : 29.970 fps\r\nColor space : YUV\r\nChroma subsampling : 4:2:0\r\nBit depth : 8 bits\r\nScan type : Progressive\r\nBits/(Pixel*Frame) : 0.174\r\nStream size : 915 MiB (97%)\r\nWriting library : x264 core 107\r\nEncoding settings : cabac=1 / ref=3 / deblock=1:0:0 / analyse=0x3:0x113 / me=umh / subme=6 / psy=1 / psy_rd=1.00:0.00 / mixed_ref=1 / me_range=16 / chroma_me=1 / trellis=0 / 8x8dct=1 / cqm=0 / deadzone=21,11 / fast_pskip=1 / chroma_qp_offset=-2 / threads=1 / sliced_threads=0 / nr=0 / decimate=1 / interlaced=0 / constrained_intra=0 / bframes=2 / b_pyramid=2 / b_adapt=2 / b_bias=0 / direct=2 / weightb=1 / open_gop=0 / weightp=0 / keyint=30 / keyint_min=16 / scenecut=0 / intra_refresh=0 / rc_lookahead=30 / rc=abr / mbtree=1 / bitrate=4800 / ratetol=1.0 / qcomp=0.60 / qpmin=1 / qpmax=31 / qpstep=4 / ip_ratio=1.41 / aq=1:1.00\r\nEncoded date : UTC 1970-01-01 00:00:00\r\nTagged date : UTC 1970-01-01 00:00:00\r\n\r\nAudio\r\nID : 2\r\nFormat : AAC\r\nFormat/Info : Advanced Audio Codec\r\nFormat profile : LC\r\nCodec ID : 40\r\nDuration : 26mn 35s\r\nBit rate mode : Variable\r\nBit rate : 152 Kbps\r\nChannel(s) : 2 channels\r\nChannel positions : Front: L R\r\nSampling rate : 44.1 KHz\r\nCompression mode : Lossy\r\nStream size : 28.9 MiB (3%)\r\nEncoded date : UTC 1970-01-01 00:00:00\r\nTagged date : UTC 1970-01-01 00:00:00\r\n\r\nhd pornstars teens ryushare.com uploaded.net keep2share.cc fileom.com download porn movies clips