HD porn uploaded 3036

Nude Teens fucking hard 3040Young teens tube hot girls free porn video 1794

Posted in Amateur, HD Porn, Sex Movies, Teen | 6773 Views |


Rate this girl !!!




\r\n\r\n4.jpeg\r\n\r\nLink(1.03 Gb||21:49||1920*1080||MP4)



DOWNLOAD

Keep2share.cc - Uploaded.net - Openload.co - Rapidu.net


http://k2s.cc/file/8beb51e36fb41/PRCSNGnt.mp4
http://ryushare.com/2zkru1rcrt8m/PRCSNGnt.mp4
http://ul.to/hvc4hze1/PRCSNGnt.mp4


Premium here:
uploaded.net
keep2share.cc
rapidu.net.cc


Teens related to HD porn uploaded 3036


Iwia A & Lorena B & Greg Baldwin – Dare ryushare uploaded keep2share

Iwia A & Lorena B & Greg Baldwin – Dare

alyona klara lesbian 226112 ryushare uploaded keep2share

alyona klara lesbian 226112

Young Sex Movies 3968 ryushare uploaded keep2share

Young Sex Movies 3968

Teen 18 Porn XXX Clips Naked 4357 ryushare uploaded keep2share

Teen 18 Porn XXX Clips Naked 4357

High Definition Movies on HD 224690 ryushare uploaded keep2share

High Definition Movies on HD 224690

HQ Sex Movies Download 1982 ryushare uploaded keep2share

HQ Sex Movies Download 1982

The best Teen sex 2589 ryushare uploaded keep2share

The best Teen sex 2589

18OnlyGirls.com / WowFandom.com Luiza (Getting Analyzed) ryushare uploaded keep2share

18OnlyGirls.com / WowFandom.com Luiza (Getting Analyzed)

K Two Teasing Tongues 8 B ryushare uploaded keep2share

K Two Teasing Tongues 8 B

Young Sex Movies 225730 ryushare uploaded keep2share

Young Sex Movies 225730

Beata, Mia, Vika-Nymph – Three For One ryushare uploaded keep2share

Beata, Mia, Vika-Nymph – Three For One

Norma – Welcome to fuck her for cash ryushare uploaded keep2share

Norma – Welcome to fuck her for cash

Teen porn movies 224851 ryushare uploaded keep2share

Teen porn movies 224851

Teen porn movies 225402 ryushare uploaded keep2share

Teen porn movies 225402

Good Teen Tube Sexy Young Naked Girls Movies 224941 ryushare uploaded keep2share

Good Teen Tube Sexy Young Naked Girls Movies 224941

Young XXX Tube Videos 3230 ryushare uploaded keep2share

Young XXX Tube Videos 3230

HD Teen Sex Tube 225487 ryushare uploaded keep2share

HD Teen Sex Tube 225487

Free Porn Videos Xxx Movies Pussy Porn 3183 ryushare uploaded keep2share

Free Porn Videos Xxx Movies Pussy Porn 3183

hd hq xxx porn videos dawonlod 226399 ryushare uploaded keep2share

hd hq xxx porn videos dawonlod 226399

porn videos direct download 226299 ryushare uploaded keep2share

porn videos direct download 226299

Hardcore Sex Hub 4013 ryushare uploaded keep2share

Hardcore Sex Hub 4013

High Definition Movies on HD Teen Porn XXX Tube 1249 ryushare uploaded keep2share

High Definition Movies on HD Teen Porn XXX Tube 1249

Sex in the morning ryushare uploaded keep2share

Sex in the morning

film sexxxx2014 ryushare uploaded keep2share

film sexxxx2014

Teen 18 Porn XXX Clips Naked 3589 ryushare uploaded keep2share

Teen 18 Porn XXX Clips Naked 3589

Daisy, Karin ryushare uploaded keep2share

Daisy, Karin

Veronica Radke Tube Young Sex 3483 ryushare uploaded keep2share

Veronica Radke Tube Young Sex 3483

HD Sex World Videos High Definition Free Porn 224629 ryushare uploaded keep2share

HD Sex World Videos High Definition Free Porn 224629

school porno movies ryushare uploaded keep2share

school porno movies

Model porno sex 3485 ryushare uploaded keep2share

Model porno sex 3485

vrgen saxa vidoes hd 226731 ryushare uploaded keep2share

vrgen saxa vidoes hd 226731

Hot sex girls movies download 4514 ryushare uploaded keep2share

Hot sex girls movies download 4514

Girls sex art hd teens videos 224410 ryushare uploaded keep2share

Girls sex art hd teens videos 224410

Teen Sex Videos Tube Movies 225390 ryushare uploaded keep2share

Teen Sex Videos Tube Movies 225390

teens xxx vetiyos ryushare uploaded keep2share

teens xxx vetiyos

Report broken links / Post a comment

You must be logged in to post a comment.



General\r\nComplete name : D:HD Porn Teens Sex download movies tube online tubePRCSNGnt.mp4\r\nFormat : MPEG-4\r\nFormat profile : Base Media\r\nCodec ID : isom\r\nFile size : 1.03 GiB\r\nDuration : 21mn 49s\r\nOverall bit rate : 6 774 Kbps\r\nWriting application : Lavf54.22.101\r\n\r\nVideo\r\nID : 1\r\nFormat : AVC\r\nFormat/Info : Advanced Video Codec\r\nFormat profile : [email protected]\r\nFormat settings, CABAC : Yes\r\nFormat settings, ReFrames : 4 frames\r\nCodec ID : avc1\r\nCodec ID/Info : Advanced Video Coding\r\nDuration : 21mn 49s\r\nBit rate : 6 640 Kbps\r\nWidth : 1 920 pixels\r\nHeight : 1 080 pixels\r\nDisplay aspect ratio : 16:9\r\nFrame rate mode : Constant\r\nFrame rate : 25.000 fps\r\nColor space : YUV\r\nChroma subsampling : 4:2:0\r\nBit depth : 8 bits\r\nScan type : Progressive\r\nBits/(Pixel*Frame) : 0.128\r\nStream size : 1.01 GiB (98%)\r\nWriting library : x264 core 125\r\nEncoding settings : cabac=1 / ref=3 / deblock=1:0:0 / analyse=0x3:0x113 / me=hex / subme=7 / psy=1 / psy_rd=1.00:0.00 / mixed_ref=1 / me_range=16 / chroma_me=1 / trellis=0 / 8x8dct=1 / cqm=0 / deadzone=21,11 / fast_pskip=1 / chroma_qp_offset=-2 / threads=16 / lookahead_threads=2 / sliced_threads=0 / nr=0 / decimate=1 / interlaced=0 / bluray_compat=0 / constrained_intra=0 / bframes=8 / b_pyramid=2 / b_adapt=1 / b_bias=0 / direct=1 / weightb=1 / open_gop=0 / weightp=2 / keyint=50 / keyint_min=5 / scenecut=40 / intra_refresh=0 / rc_lookahead=40 / rc=crf / mbtree=1 / crf=20.0 / qcomp=0.60 / qpmin=0 / qpmax=69 / qpstep=4 / ip_ratio=1.40 / aq=1:1.00\r\nLanguage : English\r\n\r\nAudio\r\nID : 2\r\nFormat : AAC\r\nFormat/Info : Advanced Audio Codec\r\nFormat profile : LC\r\nCodec ID : 40\r\nDuration : 21mn 49s\r\nBit rate mode : Constant\r\nBit rate : 128 Kbps\r\nChannel(s) : 2 channels\r\nChannel positions : Front: L R\r\nSampling rate : 44.1 KHz\r\nCompression mode : Lossy\r\nStream size : 20.0 MiB (2%)\r\nLanguage : English\r\n\r\n