HD Porn Teen Sex Videos 2182

[WowPorn.com] Feona – Humans Needs. R E DFantasyHD.com - Emily Grey – Teen Thigh Gap

Posted in Amateur, HD Porn, Sex Movies, Teen | 13826 Views |


Rate this girl !!!




\r\n\r\n\r\n4.jpeg\r\n\r\n Link(360 Mb||23:17||1280*720||WMV)



DOWNLOAD

Keep2share.cc - Uploaded.net - Openload.co - Rapidu.net


http://ryushare.com/n39xuu7wvb5d/GHNKCLyn.wmv
http://ul.to/qfeg1i0r/GHNKCLyn.wmv
http://k2s.cc/file/7b9459458e741/GHNKCLyn.wmv
http://streamcloud.eu/6tdqmlng40hf/GHNKCLyn.wmv.html


http://allmyvideos.net/3y8hxpp9a7mg
http://played.to/7wazcmuk3vdi
http://ul.to/dnbg5ybu/G.H.N.KCLyn.wmv
http://streamcloud.eu/r2rcfdpcdtp7/G.H.N.KCLyn.wmv.html


Premium here:
uploaded.net
keep2share.cc
rapidu.net.cc


Teens related to HD Porn Teen Sex Videos 2182


Long Julie Vee movies 226110 ryushare uploaded keep2share

Long Julie Vee movies 226110

SexArt.com Ivana Sugar & Vanda Lust – Rain ryushare uploaded keep2share

SexArt.com Ivana Sugar & Vanda Lust – Rain

sex com hd9in 226365 ryushare uploaded keep2share

sex com hd9in 226365

Wow girls hd porn teens 5537 ryushare uploaded keep2share

Wow girls hd porn teens 5537

www fist tam gralla xxx video com ryushare uploaded keep2share

www fist tam gralla xxx video com

Teen Sex Videos Tube Movies 225805 ryushare uploaded keep2share

Teen Sex Videos Tube Movies 225805

www defloration hqvideo com 226313 ryushare uploaded keep2share

www defloration hqvideo com 226313

Tube xxx 224403 ryushare uploaded keep2share

Tube xxx 224403

Girls sex art hd teens videos 224410 ryushare uploaded keep2share

Girls sex art hd teens videos 224410

foll hd xxx 2016bobes mailk 226591 ryushare uploaded keep2share

foll hd xxx 2016bobes mailk 226591

HD porn uploaded 3036 ryushare uploaded keep2share

HD porn uploaded 3036

dowanload porn short hd ryushare uploaded keep2share

dowanload porn short hd

HQ Sex Movies Download 225481 ryushare uploaded keep2share

HQ Sex Movies Download 225481

Watch Teen Sex Videos HD 224956 ryushare uploaded keep2share

Watch Teen Sex Videos HD 224956

Young XXX Tube Videos 3564 ryushare uploaded keep2share

Young XXX Tube Videos 3564

Hd young videos 3757 ryushare uploaded keep2share

Hd young videos 3757

nude hot 226040 ryushare uploaded keep2share

nude hot 226040

Hd xxxvidoes download com 226192 ryushare uploaded keep2share

Hd xxxvidoes download com 226192

Teenies Videos – Teen Porn, Teen Sex, XXX Free Videos 5163 ryushare uploaded keep2share

Teenies Videos – Teen Porn, Teen Sex, XXX Free Videos 5163

non HD xxx movie ryushare uploaded keep2share

non HD xxx movie

K Two Teasing Tongues 8 B ryushare uploaded keep2share

K Two Teasing Tongues 8 B

download porn in mkv format free 226124 ryushare uploaded keep2share

download porn in mkv format free 226124

Free High Quality Sex Movies 2766 ryushare uploaded keep2share

Free High Quality Sex Movies 2766

free download sexy xxx mp4 movies com ryushare uploaded keep2share

free download sexy xxx mp4 movies com

pinkworld video teen fuck hard ryushare uploaded keep2share

pinkworld video teen fuck hard

[AbbyWinters.com] Editors Choice – October 2012 Squirting ryushare uploaded keep2share

[AbbyWinters.com] Editors Choice – October 2012 Squirting

HD Porn Teen Sex Videos 225484 ryushare uploaded keep2share

HD Porn Teen Sex Videos 225484

HD Porn Video 1352 ryushare uploaded keep2share

HD Porn Video 1352

Sandy Sweet – To Have And To Fuck ryushare uploaded keep2share

Sandy Sweet – To Have And To Fuck

Young teens tube hot girls free porn video 225076 ryushare uploaded keep2share

Young teens tube hot girls free porn video 225076

Hardcore Sex Hub 4983 ryushare uploaded keep2share

Hardcore Sex Hub 4983

Watch Teen Sex Videos HD 1595 ryushare uploaded keep2share

Watch Teen Sex Videos HD 1595

K Three Teasing Tongues 5 -B ryushare uploaded keep2share

K Three Teasing Tongues 5 -B

Teen xxx sex hd 224286 ryushare uploaded keep2share

Teen xxx sex hd 224286

www scool xxx com 226417 ryushare uploaded keep2share

www scool xxx com 226417

Report broken links / Post a comment

You must be logged in to post a comment.



General\r\nComplete name : D:HD Teens Download Porn Sex clips movies TubeGHNKCLyn.wmv\r\nFormat : Windows Media\r\nFile size : 360 MiB\r\nDuration : 23mn 17s\r\nOverall bit rate : 2 162 Kbps\r\nMaximum Overall bit rate : 2 153 Kbps\r\nEncoded date : UTC 2014-02-28 16:00:09.000\r\nWriting application : Flip4Mac WMV Export Component for QuickTime (Mac) 3201耀쐀ᠸ脴쐀ŀĀ\r\n\r\nVideo\r\nID : 2\r\nFormat : VC-1\r\nFormat profile : Main\r\nCodec ID : WMV3\r\nCodec ID/Info : Windows Media Video 9\r\nCodec ID/Hint : WMV3\r\nDescription of the codec : Windows Media Video V9 - 1280 x 720, 29.97 fps, 2100 kbps (CBR)\r\nDuration : 23mn 17s\r\nBit rate : 2 105 Kbps\r\nWidth : 1 280 pixels\r\nHeight : 720 pixels\r\nDisplay aspect ratio : 16:9\r\nFrame rate : 29.970 fps\r\nColor space : YUV\r\nChroma subsampling : 4:2:0\r\nBit depth : 8 bits\r\nScan type : Progressive\r\nCompression mode : Lossy\r\nBits/(Pixel*Frame) : 0.076\r\nStream size : 351 MiB (97%)\r\nLanguage : English (US)\r\n\r\nAudio\r\nID : 1\r\nFormat : WMA\r\nFormat version : Version 2\r\nCodec ID : 161\r\nCodec ID/Info : Windows Media Audio\r\nDescription of the codec : Windows Media Audio V9 Standard - 48 kbps, 44 kHz, 16 bit, Stereo (CBR)\r\nDuration : 23mn 17s\r\nBit rate mode : Constant\r\nBit rate : 48.0 Kbps\r\nChannel(s) : 2 channels\r\nSampling rate : 44.1 KHz\r\nBit depth : 16 bits\r\nStream size : 8.00 MiB (2%)\r\nLanguage : English (US)\r\n\r\n