Hardcore Sex Hub 1665

Teens in Porno young porn videos and free teen sex 1672Young Virgin Pussy Teen Fuck Tube 1659

Posted in Amateur, HD Porn, Sex Movies, Teen | 7912 Views |


Rate this girl !!!




\r\n\r\n\r\n\r\n\r\n\r\nhttp://img102.imagetwist.com/i/05254/6k69dy8rvak4.jpeg\r\n\r\n Link(1.18 Gb||31:45||1280*720||MP4)



DOWNLOAD

Keep2share.cc - Uploaded.net - Openload.co - Rapidu.net


http://keep2share.cc/file/47428216ce7ae
http://ryushare.com/vw1j9hqhwr09/DBSNGRlc.rar
http://ul.to/jn06m8bu


Premium here:
uploaded.net
keep2share.cc
rapidu.net.cc


Teens related to Hardcore Sex Hub 1665


Porn teen hd downloads 225845 ryushare uploaded keep2share

Porn teen hd downloads 225845

HD Teen Sex Tube 5118 ryushare uploaded keep2share

HD Teen Sex Tube 5118

21Naturals.com Alysa Gap ryushare uploaded keep2share

21Naturals.com Alysa Gap

Teen porn movies 224601 ryushare uploaded keep2share

Teen porn movies 224601

xxxxxxxxxxxxx baf hf 226462 ryushare uploaded keep2share

xxxxxxxxxxxxx baf hf 226462

Wow girls downloads hd 224420 ryushare uploaded keep2share

Wow girls downloads hd 224420

1080p porn free dounloaded videos ryushare uploaded keep2share

1080p porn free dounloaded videos

teenseks1819 226156 ryushare uploaded keep2share

teenseks1819 226156

Wow porn hd downloads 224274 ryushare uploaded keep2share

Wow porn hd downloads 224274

Porn party teen girls 224438 ryushare uploaded keep2share

Porn party teen girls 224438

Jassie Gold – Take Your Tisme / all sex ryushare uploaded keep2share

Jassie Gold – Take Your Tisme / all sex

Hardcore sex videos in the high definition quality 225971 ryushare uploaded keep2share

Hardcore sex videos in the high definition quality 225971

Lily Love – Meditating Beauty ryushare uploaded keep2share

Lily Love – Meditating Beauty

Wow girls porn teens 2761 ryushare uploaded keep2share

Wow girls porn teens 2761

College Teen Sex 2160 ryushare uploaded keep2share

College Teen Sex 2160

21Naturals Sweet Cat ryushare uploaded keep2share

21Naturals Sweet Cat

www free downloade hd world sex com 226164 ryushare uploaded keep2share

www free downloade hd world sex com 226164

Teen porn movies 2225 ryushare uploaded keep2share

Teen porn movies 2225

Two Teasing Tongues 9 ryushare uploaded keep2share

Two Teasing Tongues 9

The best Teen sex 2589 ryushare uploaded keep2share

The best Teen sex 2589

Teen porn movies 225949 ryushare uploaded keep2share

Teen porn movies 225949

HD Sex World Videos High Definition Free Porn 225951 ryushare uploaded keep2share

HD Sex World Videos High Definition Free Porn 225951

Young Virgin Pussy Teen Fuck Tube 4366 ryushare uploaded keep2share

Young Virgin Pussy Teen Fuck Tube 4366

[PublicAgent.com] Nicole Love – Perfect Boobs Flashed in Public ryushare uploaded keep2share

[PublicAgent.com] Nicole Love – Perfect Boobs Flashed in Public

www j mp 18xxx video com ryushare uploaded keep2share

www j mp 18xxx video com

TeenyLovers – Zlata ryushare uploaded keep2share

TeenyLovers – Zlata

x videos mobi hd ryushare uploaded keep2share

x videos mobi hd

HD Porn Teen Sex Videos 2417 ryushare uploaded keep2share

HD Porn Teen Sex Videos 2417

very low size hd porn videos ryushare uploaded keep2share

very low size hd porn videos

Teens in Porno young porn videos and free teen sex 5495 ryushare uploaded keep2share

Teens in Porno young porn videos and free teen sex 5495

Good Teen Tube Sexy Young Naked Girls Movies 224527 ryushare uploaded keep2share

Good Teen Tube Sexy Young Naked Girls Movies 224527

Teen Porn XXX Tube 225056 ryushare uploaded keep2share

Teen Porn XXX Tube 225056

Teen Sex Videos Tube Movies 225137 ryushare uploaded keep2share

Teen Sex Videos Tube Movies 225137

Porn teen hd downloads 224289 ryushare uploaded keep2share

Porn teen hd downloads 224289

Young Sex Movies 225490 ryushare uploaded keep2share

Young Sex Movies 225490

Report broken links / Post a comment

You must be logged in to post a comment.



General\r\nComplete name : D:HD Teens Download Porn Sex clips movies Tube.xxxDBSNGRlcDBSNGRlc.mp4\r\nFormat : MPEG-4\r\nFormat profile : QuickTime\r\nCodec ID : qt \r\nFile size : 1.18 GiB\r\nDuration : 31mn 45s\r\nOverall bit rate : 5 339 Kbps\r\nEncoded date : UTC 2014-01-30 08:19:32\r\nTagged date : UTC 2014-01-31 07:56:38\r\nWriting library : Apple QuickTime\r\n\r\nVideo\r\nID : 1\r\nFormat : AVC\r\nFormat/Info : Advanced Video Codec\r\nFormat profile : [email protected]\r\nFormat settings, CABAC : No\r\nFormat settings, ReFrames : 2 frames\r\nFormat settings, GOP : M=1, N=30\r\nCodec ID : avc1\r\nCodec ID/Info : Advanced Video Coding\r\nDuration : 31mn 45s\r\nBit rate : 5 210 Kbps\r\nWidth : 1 280 pixels\r\nHeight : 720 pixels\r\nDisplay aspect ratio : 16:9\r\nFrame rate mode : Constant\r\nFrame rate : 29.970 fps\r\nColor space : YUV\r\nChroma subsampling : 4:2:0\r\nBit depth : 8 bits\r\nScan type : Progressive\r\nBits/(Pixel*Frame) : 0.189\r\nStream size : 1.16 GiB (98%)\r\nTitle : Žáðàáîò÷èê âèäåî Apple\r\nLanguage : English\r\nEncoded date : UTC 2014-01-30 08:19:34\r\nTagged date : UTC 2014-01-31 07:56:38\r\nColor primaries : BT.709\r\nTransfer characteristics : BT.709\r\nMatrix coefficients : BT.709\r\n\r\nAudio\r\nID : 2\r\nFormat : AAC\r\nFormat/Info : Advanced Audio Codec\r\nFormat profile : LC\r\nCodec ID : 40\r\nDuration : 31mn 45s\r\nSource duration : 31mn 45s\r\nBit rate mode : Constant\r\nBit rate : 128 Kbps\r\nChannel(s) : 2 channels\r\nChannel positions : Front: L R\r\nSampling rate : 44.1 KHz\r\nCompression mode : Lossy\r\nStream size : 28.7 MiB (2%)\r\nSource stream size : 28.7 MiB (2%)\r\nTitle : Žáðàáîò÷èê çâóêà Apple\r\nLanguage : English\r\nEncoded date : UTC 2014-01-30 08:19:36\r\nTagged date : UTC 2014-01-31 07:56:38\r\n\r\nOther\r\nID : 3\r\nType : Time code\r\nFormat : QuickTime TC\r\nDuration : 31mn 45s\r\nTime code of first frame : 00:00:00:00\r\nTime code settings : Striped\r\nTitle : Žáðàáîò÷èê âðåìåííîãî êîäà\r\nLanguage : English\r\nEncoded date : UTC 2014-01-31 07:56:38\r\nTagged date : UTC 2014-01-31 07:56:38\r\n\r\n