Good Teen Tube Sexy Young Naked Girls Movies 2157

College Teen Sex 2160Teen 18 Porn XXX Clips Naked 2154

Posted in Amateur, HD Porn, Sex Movies, Teen | 17030 Views |


Rate this girl !!!




\r\n\r\n11.jpeg\r\n\r\nLink(865 Mb||25:11||1280*720||MP4)



DOWNLOAD

Keep2share.cc - Uploaded.net - Openload.co - Rapidu.net


http://ryushare.com/hrm0x7v67ee5/SYRGFSly.mp4
http://ul.to/utc4gemu/SYRGFSly.mp4
http://k2s.cc/file/77bcf96802969/SYRGFSly.mp4


Premium here:
uploaded.net
keep2share.cc
rapidu.net.cc


Teens related to Good Teen Tube Sexy Young Naked Girls Movies 2157


Free High Quality Sex Movies 4635 ryushare uploaded keep2share

Free High Quality Sex Movies 4635

Young teens tube hot girls free porn video 5570 ryushare uploaded keep2share

Young teens tube hot girls free porn video 5570

Teen porn movies 2225 ryushare uploaded keep2share

Teen porn movies 2225

Teenies Videos – Teen Porn, Teen Sex, XXX Free Videos 1306 ryushare uploaded keep2share

Teenies Videos – Teen Porn, Teen Sex, XXX Free Videos 1306

Small girls and boys porn 2528 ryushare uploaded keep2share

Small girls and boys porn 2528

18OnlyGirls – Natasha – 25 Clips Video Pack ryushare uploaded keep2share

18OnlyGirls – Natasha – 25 Clips Video Pack

Hot Teen Sex HD videos 224860 ryushare uploaded keep2share

Hot Teen Sex HD videos 224860

Teen Sex Movies Young Porn Tube Vids 4094 ryushare uploaded keep2share

Teen Sex Movies Young Porn Tube Vids 4094

GirlsDoPorn E230 18 Years Old ryushare uploaded keep2share

GirlsDoPorn E230 18 Years Old

pikworld hd sex com 226466 ryushare uploaded keep2share

pikworld hd sex com 226466

Fresh Teen Videos 224791 ryushare uploaded keep2share

Fresh Teen Videos 224791

Porn HD Sex HD Teen Sex 224548 ryushare uploaded keep2share

Porn HD Sex HD Teen Sex 224548

Wow porn tube movies 224906 ryushare uploaded keep2share

Wow porn tube movies 224906

HD Porn Teen Sex Videos 225563 ryushare uploaded keep2share

HD Porn Teen Sex Videos 225563

Squirters Juice Bar Carla Cox ryushare uploaded keep2share

Squirters Juice Bar Carla Cox

High Definition Movies on HD Teen Porn XXX Tube 1687 ryushare uploaded keep2share

High Definition Movies on HD Teen Porn XXX Tube 1687

Hot amateur ryushare uploaded keep2share

Hot amateur

Free Porn Videos Xxx Movies Pussy Porn 3592 ryushare uploaded keep2share

Free Porn Videos Xxx Movies Pussy Porn 3592

zazzers com Full HD ryushare uploaded keep2share

zazzers com Full HD

1280×920 hd porn movie 226498 ryushare uploaded keep2share

1280×920 hd porn movie 226498

Wow porn hd downloads 224274 ryushare uploaded keep2share

Wow porn hd downloads 224274

Girls do porn in HD 224981 ryushare uploaded keep2share

Girls do porn in HD 224981

Teen porn xxx 5502 ryushare uploaded keep2share

Teen porn xxx 5502

HD Porn Videos 1486 ryushare uploaded keep2share

HD Porn Videos 1486

wallpaper of XXX on bed boys and girl 226347 ryushare uploaded keep2share

wallpaper of XXX on bed boys and girl 226347

1080p pornstar 226032 ryushare uploaded keep2share

1080p pornstar 226032

download hd romantic porn movie 226329 ryushare uploaded keep2share

download hd romantic porn movie 226329

www scool xxx com 226417 ryushare uploaded keep2share

www scool xxx com 226417

Teen Tits Tube, Young Girls Porn Videos 225601 ryushare uploaded keep2share

Teen Tits Tube, Young Girls Porn Videos 225601

download free 720 porn videos ryushare uploaded keep2share

download free 720 porn videos

Sweet Teen Porn – Young Porn Videos 4521 ryushare uploaded keep2share

Sweet Teen Porn – Young Porn Videos 4521

Fresh Teen Videos 2655 ryushare uploaded keep2share

Fresh Teen Videos 2655

Free Porn Videos Xxx Movies Pussy Porn 1302 ryushare uploaded keep2share

Free Porn Videos Xxx Movies Pussy Porn 1302

Brunnete Pornstar Teenage Fucked ryushare uploaded keep2share

Brunnete Pornstar Teenage Fucked

College Teen Sex 2994 ryushare uploaded keep2share

College Teen Sex 2994

Report broken links / Post a comment

You must be logged in to post a comment.



General\r\nComplete name : D:HD Teens Download Porn Sex clips movies TubeSYRGFSly.mp4\r\nFormat : MPEG-4\r\nFormat profile : Base Media\r\nCodec ID : isom\r\nFile size : 865 MiB\r\nDuration : 25mn 11s\r\nOverall bit rate mode : Variable\r\nOverall bit rate : 4 801 Kbps\r\nWriting application : Lavf52.97.0\r\n\r\nVideo\r\nID : 1\r\nFormat : AVC\r\nFormat/Info : Advanced Video Codec\r\nFormat profile : [email protected]\r\nFormat settings, CABAC : Yes\r\nFormat settings, ReFrames : 4 frames\r\nCodec ID : avc1\r\nCodec ID/Info : Advanced Video Coding\r\nDuration : 25mn 11s\r\nBit rate : 4 669 Kbps\r\nWidth : 1 280 pixels\r\nHeight : 720 pixels\r\nDisplay aspect ratio : 16:9\r\nFrame rate mode : Constant\r\nFrame rate : 25.000 fps\r\nColor space : YUV\r\nChroma subsampling : 4:2:0\r\nBit depth : 8 bits\r\nScan type : Progressive\r\nBits/(Pixel*Frame) : 0.203\r\nStream size : 841 MiB (97%)\r\nWriting library : x264 core 110\r\nEncoding settings : cabac=1 / ref=3 / deblock=1:0:0 / analyse=0x3:0x113 / me=hex / subme=7 / psy=1 / psy_rd=1.00:0.00 / mixed_ref=1 / me_range=16 / chroma_me=1 / trellis=0 / 8x8dct=1 / cqm=0 / deadzone=21,11 / fast_pskip=1 / chroma_qp_offset=-2 / threads=24 / sliced_threads=0 / nr=0 / decimate=1 / interlaced=0 / constrained_intra=0 / bframes=8 / b_pyramid=2 / b_adapt=1 / b_bias=0 / direct=0 / weightb=1 / open_gop=0 / weightp=2 / keyint=50 / keyint_min=25 / scenecut=40 / intra_refresh=0 / rc_lookahead=40 / rc=crf / mbtree=1 / crf=20.0 / qcomp=0.60 / qpmin=10 / qpmax=51 / qpstep=4 / ip_ratio=1.41 / aq=1:1.00\r\nLanguage : English\r\n\r\nAudio\r\nID : 2\r\nFormat : AAC\r\nFormat/Info : Advanced Audio Codec\r\nFormat profile : LC\r\nCodec ID : 40\r\nDuration : 25mn 11s\r\nBit rate mode : Variable\r\nBit rate : 128 Kbps\r\nChannel(s) : 2 channels\r\nChannel positions : Front: L R\r\nSampling rate : 44.1 KHz\r\nCompression mode : Lossy\r\nStream size : 23.1 MiB (3%)\r\nLanguage : English\r\n\r\n